<?xml version="1.0" standalone="no"?>
<!DOCTYPE svg PUBLIC "-//W3C//DTD SVG 1.1//EN" "http://www.w3.org/Graphics/SVG/1.1/DTD/svg11.dtd" >
<svg xmlns="http://www.w3.org/2000/svg">
<metadata>Generated by IcoMoon</metadata>
<defs>
<font id="Unycon" horiz-adv-x="1024">
<font-face units-per-em="1024" ascent="960" descent="-64" />
<missing-glyph horiz-adv-x="1024" />
<glyph unicode="&#x20;" horiz-adv-x="512" d="" />
<glyph unicode="&#xe000;" glyph-name="photo-camera" horiz-adv-x="1216" d="M64-64h1088c40 0 64 24 64 64v704c0 40-24 64-64 64h-256l-128 192h-320l-128-192h-256c-40 0-64-24-64-64v-704c0-40 24-64 64-64zM128 704c35 0 64-29 64-64s-29-64-64-64-64 29-64 64 29 64 64 64zM608 64c-159 0-288 129-288 288s129 288 288 288 288-129 288-288-129-288-288-288zM608 512c-88 0-160-72-160-160s72-160 160-160 160 72 160 160-72 160-160 160z" />
<glyph unicode="&#xe007;" glyph-name="camera-diaphragm" d="M512-64c283 0 512 229 512 512s-229 512-512 512-512-229-512-512 229-512 512-512zM288 482l-122 180c71 115 201 170 346 170zM466 643l110 189c117-24 200-90 256-192zM107 452c0 50 9 98 26 142l187-274h-192c-25 52-21 70-21 132zM640 576h256c14-41 14-79 14-124 0-68-17-132-46-188zM704 384l128-192c-64-83-147-115-256-128zM576 256l-64-192c-124 7-251 97-320 192h384z" />
<glyph unicode="&#xe00e;" glyph-name="controls" d="M96 768h64v192h-64v-192zM352 512h64v448h-64v-448zM608 768h64v192h-64v-192zM864 640h64v320h-64v-320zM160 512h64v192h-192v-192h64v-576h64v576zM672 512h64v192h-192v-192h64v-576h64v576zM992 384v192h-192v-192h64v-448h64v448h64zM416 256h64v192h-192v-192h64v-320h64v320z" />
<glyph unicode="&#xe01b;" glyph-name="vimeo" horiz-adv-x="1084" d="M1 635l45-58s56 78 108 46c30-17 48-96 48-96s66-277 127-412c60-134 108-174 170-178 99-1 173 88 198 114 113 107 274 334 274 334s182 267 84 454c-31 54-157 115-290 12-133-104-124-211-124-211s85 36 112 2c26-33 32-73 22-115-34-101-198-271-198-271s-75 314-151 583c-19 50-43 121-187 10-151-129-238-214-238-214z" />
<glyph unicode="&#xe01d;" glyph-name="chat" horiz-adv-x="1152" d="M624 75c292 0 528 191 528 426 0 236-236 427-528 427s-528-191-528-427c0-88 33-169 89-237l-185-296 368 160c76-34 163-53 256-53zM288 608c53 0 96-43 96-96s-43-96-96-96-96 43-96 96 43 96 96 96zM608 608c53 0 96-43 96-96s-43-96-96-96-96 43-96 96 43 96 96 96zM928 608c53 0 96-43 96-96s-43-96-96-96-96 43-96 96 43 96 96 96z" />
<glyph unicode="&#xe01e;" glyph-name="scissors" d="M736 576c88 0 160 86 160 192s-72 192-160 192c-77 0-142-66-157-153l-70-103-64 98c-13 90-78 158-157 158-88 0-160-86-160-192s72-192 160-192c57 0 106 36 135 89l25-153-116-263s-58-197 52-313c1 1 51 118 105 243 0 0 49 104 51 117 83 203 36 216 36 216l25 153c29-53 78-89 135-89zM288 896c53 0 96-57 96-128s-43-128-96-128-96 57-96 128 43 128 96 128zM736 896c53 0 96-57 96-128s-43-128-96-128-96 57-96 128 43 128 96 128zM512 420c-21 0-37 17-37 37 0 21 16 38 37 38s37-17 37-38c0-20-16-37-37-37zM690 249c0 0-72 177-73 178-21-118-84-248-84-248 54-125 106-242 107-243 110 116 50 313 50 313z" />
<glyph unicode="&#xe04b;" glyph-name="avira-antivirus" horiz-adv-x="1139" d="M975 711l-79 77s-359 301-726-63c-206-206-226-516-54-712l78-78 331 329 210-209c93-92 243-92 335 0 79 78 90 199 33 290-3 4-6 9-10 13-27 26-70 26-97 0-24-25-26-63-5-90l1-1c3 0 28-47 21-82-6-15-15-30-28-43-47-47-125-47-172 0l-204 206zM251 644c165 163 409 188 563 63l-625-622c-127 153-102 396 62 559z" />
<glyph unicode="&#xe05b;" glyph-name="kaspersky-antivirus" d="M1024 960h-320l-384-320v320h-320v-1024zM448 256l192-192-128-128h512v448l-128-128-192 256z" />
<glyph unicode="&#xe05d;" glyph-name="list-ul" d="M128 704c71 0 128 57 128 128s-57 128-128 128-128-57-128-128 57-128 128-128zM320 768h704v128h-704v-128zM128 320c71 0 128 57 128 128s-57 128-128 128-128-57-128-128 57-128 128-128zM320 384h704v128h-704v-128zM128-64c71 0 128 57 128 128s-57 128-128 128-128-57-128-128 57-128 128-128zM1024 0v128h-704v-128h704z" />
<glyph unicode="&#xe05e;" glyph-name="gallery" d="M896 96h64c35 0 64 29 64 64v704c0 35-29 64-64 64h-768c-35 0-64-29-64-64v-64h-64c-35 0-64-29-64-64v-704c0-35 29-64 64-64h768c35 0 64 29 64 64v64zM960 160h-64v576c0 35-29 64-64 64h-640v64h768v-704zM832 736v-637l-192 317-128-256-256 192-192-192v576h768zM256 416c71 0 128 57 128 128s-57 128-128 128-128-57-128-128 57-128 128-128z" />
<glyph unicode="&#xe06d;" glyph-name="desktop" d="M704 128h256c35 0 64 29 64 64v704c0 35-29 64-64 64h-896c-35 0-64-29-64-64v-704c0-35 29-64 64-64h256v-128h-192v-64h768v64h-192v128zM960 320h-896v576h896v-576z" />
<glyph unicode="&#xe06e;" glyph-name="toggle-on" horiz-adv-x="1408" d="M480-64h448c265 0 480 215 480 480v64c0 265-215 480-480 480h-448c-265 0-480-215-480-480v-64c0-265 215-480 480-480zM1344 480v-64c0-230-186-416-416-416h-448c-230 0-416 186-416 416v64c0 230 186 416 416 416h448c230 0 416-186 416-416zM480 128h448c159 0 288 129 288 288v64c0 159-129 288-288 288h-448c-159 0-288-129-288-288v-64c0-159 129-288 288-288zM896 640c106 0 192-86 192-192s-86-192-192-192-192 86-192 192 86 192 192 192z" />
<glyph unicode="&#xe070;" glyph-name="hand-cash" horiz-adv-x="1248" d="M656 399c-87 0-154 44-189 112h-275v64h253c-4 21-6 42-5 64h-312v64h323c6 22 14 44 24 64h-411v64h452c62 78 154 130 248 130 147 0 242-126 212-281s-173-281-320-281zM760 855h-32l-6-30c-24-4-43-13-56-29-14-15-23-33-27-52-3-15-2-28 2-39s10-20 18-26c9-6 21-13 37-19 18-7 30-13 34-18 5-4 6-11 5-20-2-9-6-17-13-23s-16-9-28-9c-25 0-38 14-36 43l-52-13c1-46 22-72 62-76l-7-40h31l8 40c25 3 46 12 62 28 16 15 26 34 30 58 3 15 3 28-1 39-5 11-11 20-21 27-9 6-23 13-40 20-16 7-26 12-30 17-4 4-6 11-4 19s6 15 12 21c7 6 14 9 23 9 18 0 28-13 32-39l47 19c-3 37-22 58-56 63zM898 394c16 30 101 102 143 120 34 15 42-17 42-17s-144-131-158-145c-18 5-35 28-27 42zM933 314c16 31 139 144 181 162 34 15 42-17 42-17s-182-172-196-186c-18 5-35 27-27 41zM128 415v-416c0-35-29-64-64-64s-64 29-64 64v416c0 36 29 64 64 64s64-28 64-64zM1232 332c-23-36-115-143-221-262-96-106-272-134-403-134-140 0-251 75-384 98-31 2-32 20-32 29v256c0 9-2 72 5 76 24 13 84 41 157 41 95 0 206-56 206-56h144c61 0 192-7 192-99 0-76-153-98-192-98-96 0-240 10-240 10s274-42 336-42 94 8 146 47c73 54 167 164 211 213 51 59 123-5 75-79z" />
<glyph unicode="&#xe072;" glyph-name="global-delivery-arrow" d="M1001 333c12 37 20 76 23 116v64c-3 41-11 80-23 117-60 183-223 316-423 329-11 1-53 1-64 0-41-3-80-10-117-23-183-59-315-223-329-423v-16c21 17 44 32 68 44 5 34 12 66 24 97 34 11 71 22 113 31-5-31-8-63-10-95 9 1 18 3 27 3 13 0 24-2 37-3 3 37 6 74 12 110 56 10 115 18 175 21v-192h-22c33-23 62-53 86-86v22h192c-3-60-10-119-21-174-36-6-73-10-111-13 2-12 4-24 4-37 0-9-2-18-3-27 32 2 64 6 96 10-10-41-21-79-32-113-31-12-63-19-97-24-12-24-27-47-44-68h16c200 14 364 147 423 330zM514 895v-126c-56-2-111-9-163-18 7 39 16 76 25 110 43 19 89 30 138 34zM715 861c9-33 18-69 25-107-52 8-107 14-162 15v126c49-4 95-15 137-34zM200 715c27 40 63 74 102 102-7-25-12-52-18-80-30-7-58-14-84-22zM791 817c35-25 66-56 91-91-24 6-48 12-74 17-5 26-11 50-17 74zM752 687c9-56 15-115 18-174h-192v192c59-2 118-9 174-18zM926 651c19-43 30-89 34-138h-126c-1 55-7 110-15 162 38-7 74-16 107-24zM290 513c-160 0-289-129-289-288 0-160 129-289 289-289 159 0 288 129 288 289 0 159-129 288-288 288zM834 449h126c-4-48-15-94-34-137-34-9-71-18-110-25 10 52 16 107 18 162zM129 257v128h64v-128c0-67 65-64 65-64h64v128l192-161-192-160v128h-64s-129 2-129 129zM882 237c-28-39-62-74-102-101 8 26 15 53 22 84 28 5 55 11 80 17z" />
<glyph unicode="&#xe074;" glyph-name="global-delivery-check" d="M735 383c159 0 289 129 289 288 0 160-130 289-289 289s-289-129-289-289c0-159 130-288 289-288zM308 795c35 15 72 24 110 29 12 25 27 48 45 69h-17c-40-3-80-11-117-23-182-60-315-224-328-423-1-12-1-53 0-64 16-240 206-430 445-446 12-1 53-1 65 0 199 13 363 146 423 329 12 37 20 76 22 117v16c-21-18-43-32-68-44-5-39-14-76-29-110-35-9-72-18-111-25 6 32 10 67 14 101-9-1-18-3-27-3-13 0-25 3-37 4-4-39-9-77-16-114-56-9-113-15-171-17v192h22c-34 23-63 53-87 86v-22h-191c1 58 7 115 16 171 37 7 76 12 115 15-1 13-4 25-4 38 0 9 2 18 3 27-35-4-69-8-102-14 7 39 16 76 25 111zM894 785c12-13 12-33 0-46l-182-181c-12-13-32-13-45 0l-91 91c-12 12-12 32 0 45 13 13 33 13 46 0l68-68 158 159c13 12 33 12 46 0zM133 648c27 40 61 74 100 103-6-26-12-53-17-81-30-7-57-14-83-22zM191 447h-126c3 43 12 86 28 125 33 10 71 21 112 31-8-51-13-103-14-156zM93 257c-16 39-25 82-28 126h126c2-54 8-108 17-158-42 10-81 21-115 32zM274 211c-10 55-17 113-19 172h191v-192c-59 2-117 10-172 20zM221 158c8-32 16-61 24-89-44 30-82 68-112 112 27-8 57-16 88-23zM734 152l81 18c-29-39-63-74-103-101 8 26 15 54 22 83zM321 29c-11 34-22 73-32 115 50-9 103-15 157-17v-126c-43 3-86 12-125 28zM511 1v126c52 1 105 7 157 14-10-41-21-78-32-112-39-16-82-25-125-28z" />
<glyph unicode="&#xe075;" glyph-name="shopping-cart-delivery" horiz-adv-x="1280" d="M1152 384l128 320s-2 64-64 64h-704v128c1 26-39 64-64 64h-128s-64-4-64-64 64-64 64-64h64v-128h-384v-64h384v-128h-320v-64h320v-128h-256v-64h256v-64s-3-64 64-64h576c29 0 64 22 64 64s-35 64-64 64h-512v64h576c26 0 55 38 64 64zM631 704l-9-64h-110v64h119zM823 704l-9-64h-128l9 64h128zM1015 704l-9-64h-128l9 64h128zM1216 704l-26-64h-120l9 64h137zM603 512h-91v64h101zM677 576h128l-10-64h-128zM869 576h128l-10-64h-128zM1061 576h104l-26-64h-88zM512 384v64h82l-9-64h-73zM649 384l9 64h128l-9-64h-128zM841 384l9 64h128l-9-64h-128zM1033 384l9 64h72l-26-64h-55zM561 64c-48 0-95-29-104-64s22-64 70-64 95 29 104 64-22 64-70 64zM945 64c-48 0-95-29-104-64s22-64 70-64 95 29 104 64-22 64-70 64z" />
<glyph unicode="&#xe076;" glyph-name="shopping-cart-check" horiz-adv-x="1280" d="M1152 384l128 320s-2 64-64 64h-704v128c1 26-39 64-64 64h-128s-64-4-64-64 64-64 64-64h64v-347c74-32 133-91 165-165h539c26 0 55 38 64 64zM631 704l-9-64h-110v64h119zM823 704l-9-64h-128l9 64h128zM1015 704l-9-64h-128l9 64h128zM1216 704l-26-64h-120l9 64h137zM512 576h101l-10-64h-91v64zM677 576h128l-10-64h-128zM869 576h128l-10-64h-128zM1061 576h104l-26-64h-88zM512 192c0 141-115 256-256 256s-256-115-256-256 115-256 256-256 256 115 256 256zM512 448h82l-9-64h-73v64zM658 448h128l-9-64h-128zM850 448h128l-9-64h-128zM1042 448h72l-26-64h-55zM211 147l158 158c13 13 33 13 45 0 13-12 13-33 0-45l-181-181c-12-13-32-13-45 0l-90 90c-13 13-13 33 0 46 12 12 32 12 45 0zM576 192c0-22-2-43-6-64h454c29 0 64 22 64 64s-35 64-64 64h-454c4-21 6-42 6-64zM561 64c-5 0-9-1-13-2-18-41-45-77-78-106 13-12 33-20 57-20 48 0 95 29 104 64s-22 64-70 64zM945 64c-48 0-95-29-104-64s22-64 70-64 95 29 104 64-22 64-70 64z" />
<glyph unicode="&#xe077;" glyph-name="shopping-cart-time" horiz-adv-x="1280" d="M1152 384l128 320s-2 64-64 64h-704v128c1 26-39 64-64 64h-128s-64-4-64-64 64-64 64-64h64v-347c74-32 133-91 165-165h539c26 0 55 38 64 64zM631 704l-9-64h-110v64h119zM823 704l-9-64h-128l9 64h128zM1015 704l-9-64h-128l9 64h128zM1216 704l-26-64h-120l9 64h137zM512 576h101l-10-64h-91v64zM677 576h128l-10-64h-128zM869 576h128l-10-64h-128zM1061 576h104l-26-64h-88zM512 192c0 141-115 256-256 256s-256-115-256-256 115-256 256-256 256 115 256 256zM512 448h82l-9-64h-73v64zM658 448h128l-9-64h-128zM850 448h128l-9-64h-128zM1042 448h72l-26-64h-55zM64 192c0 106 86 192 192 192s192-86 192-192-86-192-192-192-192 86-192 192zM256 192v96c0 18-14 32-32 32s-32-14-32-32v-128c0-18 14-32 32-32h128c18 0 32 14 32 32s-14 32-32 32h-96zM576 192c0-22-2-43-6-64h454c29 0 64 22 64 64s-35 64-64 64h-454c4-21 6-42 6-64zM561 64c-5 0-9-1-13-2-18-41-45-77-78-106 13-12 33-20 57-20 48 0 95 29 104 64s-22 64-70 64zM945 64c-48 0-95-29-104-64s22-64 70-64 95 29 104 64-22 64-70 64z" />
<glyph unicode="&#xe078;" glyph-name="paper-delivery" d="M1344 0l64 640c0 35-29 64-64 64h-128v192c0 35-29 64-64 64h-704c-35 0-64-29-64-64v-192h-384v-64h384v-128h-320v-64h320v-128h-256v-64h256v-256c0-35 29-64 64-64h704c2 0 3 1 5 0h123c35 0 64 29 64 64zM1152 0h-704v896h704v-896zM1088 768h-576v-64h576v64zM1088 640h-576v-64h576v64zM1344 640l-64-640h-64v640h128zM768 512h-256v-384h256v384zM1088 448h-256v-64h256v64zM1088 320h-256v-64h256v64zM1024 192h-192v-64h192v64z" />
<glyph unicode="&#xe079;" glyph-name="paper-check" d="M1344 0l64 640c0 35-29 64-64 64h-128v192c0 35-29 64-64 64h-704c-35 0-64-29-64-64v-335c22-6 44-15 64-25v360h704v-896h-595c-20-24-42-46-67-64h662c2 0 3 1 5 1v-1h123c35 0 64 29 64 64zM512 704h576v64h-576v-64zM512 576h576v64h-576v-64zM1344 640l-64-640h-64v640h128zM576 224c0 159-129 288-288 288s-288-129-288-288 129-288 288-288 288 129 288 288zM512 512v-19c78-64 128-160 128-269 0-34-6-65-15-96h143v384h-256zM832 384h256v64h-256v-64zM243 179l158 158c13 13 33 13 45 0 13-12 13-33 0-45l-181-181c-12-13-32-13-45 0l-90 90c-13 13-13 33 0 46 12 12 32 12 45 0zM832 256h256v64h-256v-64zM1024 128v64h-192v-64h192z" />
<glyph unicode="&#xe07a;" glyph-name="crown" horiz-adv-x="1408" d="M1267 533c78 0 141 63 141 142 0 78-63 142-141 142s-141-64-141-142c0-34 12-65 31-90l-179-129-43 225c60 17 104 72 104 137 0 78-63 142-141 142s-141-64-141-142c0-58 34-108 84-130l-137-240-144 244c45 24 75 71 75 126 0 78-63 142-141 142s-141-64-141-142c0-68 48-125 112-139l-48-218-163 129c18 24 28 53 28 85 0 78-63 142-141 142s-141-64-141-142c0-79 63-142 141-142 19 0 36 3 52 10l127-351h768l126 351c16-6 34-10 53-10zM1088 128h-768v-192h768v192z" />
<glyph unicode="&#xe07b;" glyph-name="codeguard" d="M928 781l-2-169s-224 104-574 41c-3 0-31-178 0-256 39-126 192-192 192-192l128 192h-128v192c296 6 374-74 376-74-13-372-376-566-376-566s-324 152-384 384c-60 254-64 447-64 448 420 166 832 0 832 0z" />
<glyph unicode="&#xe07e;" glyph-name="toggle-off" horiz-adv-x="1408" d="M480-64h448c265 0 480 215 480 480v64c0 265-215 480-480 480h-448c-265 0-480-215-480-480v-64c0-265 215-480 480-480zM1344 480v-64c0-230-186-416-416-416h-448c-230 0-416 186-416 416v64c0 230 186 416 416 416h448c230 0 416-186 416-416zM512 128c177 0 320 143 320 320s-143 320-320 320-320-143-320-320 143-320 320-320zM512 640c106 0 192-86 192-192s-86-192-192-192-192 86-192 192 86 192 192 192z" />
<glyph unicode="&#xe080;" glyph-name="paper-time" d="M1344 0l64 640c0 35-29 64-64 64h-128v192c0 35-29 64-64 64h-704c-35 0-64-29-64-64v-335c22-6 44-15 64-25v360h704v-896h-595c-20-24-42-46-67-64h662c2 0 3 1 5 0h123c35 0 64 29 64 64zM512 704h576v64h-576v-64zM512 576h576v64h-576v-64zM1344 640l-64-640h-64v640h128zM576 224c0 159-129 288-288 288s-288-129-288-288 129-288 288-288 288 129 288 288zM512 512v-19c78-64 128-160 128-269 0-34-6-65-15-96h143v384h-256zM288 448c124 0 225-100 225-224s-101-224-225-224-224 100-224 224 100 224 224 224zM832 384h256v64h-256v-64zM288 192h128c18 0 32 14 32 32s-14 32-32 32h-96v96c0 18-14 32-32 32s-32-14-32-32v-128c0-18 14-32 32-32zM832 256h256v64h-256v-64zM1024 128v64h-192v-64h192z" />
<glyph unicode="&#xe081;" glyph-name="paper-arrow" d="M1152 512v-128h-154l26 256c0 35-29 64-64 64h-128v192c0 35-29 64-64 64h-704c-35 0-64-29-64-64v-896c0-35 29-64 64-64h704c2 0 3 1 5 0h123c35 0 64 29 64 64l26 256h166v-128l256 192zM768 0h-704v896h704v-896zM704 768h-576v-64h576v64zM704 640h-576v-64h576v64zM960 640l-64-640h-64v640h128zM384 512h-256v-384h256v384zM704 448h-256v-64h256v64zM704 320h-256v-64h256v64zM640 192h-192v-64h192v64z" />
<glyph unicode="&#xe082;" glyph-name="purse-time" d="M768 224c0-119 60-224 150-288h-854c-23 0-64 27-64 64s128 640 128 640 4 64 64 64h131c-1 11-3 21-3 32 0 124 100 224 224 224s224-100 224-224c0-11-2-21-3-32h131c57 0 64-64 64-64l20-93c-125-55-212-179-212-323zM544 896c-88 0-160-72-160-160 0-11 1-22 3-32h314c2 10 3 21 3 32 0 88-72 160-160 160zM320 640c-35 0-64-29-64-64s29-64 64-64 64 29 64 64-29 64-64 64zM768 640c-35 0-64-29-64-64s29-64 64-64 64 29 64 64-29 64-64 64zM1120-64c-159 0-288 129-288 288s129 288 288 288 288-129 288-288-129-288-288-288zM1120 448c-124 0-224-100-224-224s100-224 224-224 225 100 225 224-101 224-225 224zM1248 192h-128c-18 0-32 14-32 32v128c0 18 14 32 32 32s32-14 32-32v-96h96c18 0 32-14 32-32s-14-32-32-32z" />
<glyph unicode="&#xe083;" glyph-name="purse-check" d="M768 224c0-119 60-224 150-288h-854c-23 0-64 27-64 64s128 640 128 640 4 64 64 64h131c-1 11-3 21-3 32 0 124 100 224 224 224s224-100 224-224c0-11-2-21-3-32h131c57 0 64-64 64-64l20-93c-125-55-212-179-212-323zM544 896c-88 0-160-72-160-160 0-11 1-22 3-32h314c2 10 3 21 3 32 0 88-72 160-160 160zM320 640c-35 0-64-29-64-64s29-64 64-64 64 29 64 64-29 64-64 64zM768 640c-35 0-64-29-64-64s29-64 64-64 64 29 64 64-29 64-64 64zM1120-64c-159 0-288 129-288 288s129 288 288 288 288-129 288-288-129-288-288-288zM1278 337c-12 13-32 13-45 0l-158-158-68 68c-13 12-33 12-45 0-13-13-13-33 0-46l90-90c13-13 33-13 45 0l181 181c13 12 13 33 0 45z" />
<glyph unicode="&#xe087;" glyph-name="box-check" horiz-adv-x="1152" d="M0 768h1024v128c0 35-29 64-64 64h-896c-35 0-64-29-64-64v-128zM960 704h-896v-704c0-35 29-64 64-64h534c-90 64-150 169-150 288 0 194 158 352 352 352 34 0 65-6 96-15v143zM864-64c159 0 288 129 288 288s-129 288-288 288-288-129-288-288 129-288 288-288zM1022 337c13-12 13-33 0-45l-181-181c-12-13-32-13-45 0l-90 90c-13 13-13 33 0 46 12 12 32 12 45 0l68-68 158 158c13 13 33 13 45 0z" />
<glyph unicode="&#xe088;" glyph-name="box-arrow" d="M1024 768v128c0 35-29 64-64 64h-896c-35 0-64-29-64-64v-128h1024zM960 704h-896v-256h320v128l320-256-320-256v128h-320v-192c0-35 29-64 64-64h768c35 0 64 29 64 64v704z" />
<glyph unicode="&#xe08b;" glyph-name="yahoo" horiz-adv-x="1408" d="M1408 640v129l-512-1v-128h177l-301-266-265 458h261v128h-768v-128h218l358-576v-256h-192v-64h704v64h-256v256l410 384h166z" />
<glyph unicode="&#xe093;" glyph-name="basket" horiz-adv-x="1152" d="M664 404l256 443c18 31 7 70-23 88-31 17-70 7-88-24l-255-443c-18-31-7-70 23-87 31-18 70-8 87 23zM1024-56l64 384c38 0 64 29 64 64v64c0 35-26 64-64 64h-283l-85-148c-35-61-114-82-175-47s-82 114-47 175l12 20h-446c-38 0-64-29-64-64v-64c0-35 26-64 64-64l64-384h896zM320 200c35 0 64-29 64-64 0-36-29-64-64-64s-64 28-64 64c0 35 29 64 64 64zM576 200c35 0 64-29 64-64 0-36-29-64-64-64s-64 28-64 64c0 35 29 64 64 64zM832 200c35 0 64-29 64-64 0-36-29-64-64-64s-64 28-64 64c0 35 29 64 64 64z" />
<glyph unicode="&#xe095;" glyph-name="basket-plus" d="M320 320c177 0 320 143 320 320s-143 320-320 320-320-143-320-320 143-320 320-320zM920 396l256 443c18 31 7 70-23 88-31 17-70 7-88-24l-255-443c-18-30-7-70 23-87 31-18 70-7 87 23zM512 576h-128v-128h-128v128h-128v128h128v128h128v-128h128v-128zM1280-64l64 384c38 0 64 29 64 64v64c0 35-26 64-64 64h-283l-85-148c-35-61-114-82-175-47-61 36-82 114-47 175l12 20h-86c-51-146-187-250-350-255l54-321h896zM576 192c35 0 64-29 64-64s-29-64-64-64-64 29-64 64 29 64 64 64zM832 192c35 0 64-29 64-64s-29-64-64-64-64 29-64 64 29 64 64 64zM1088 192c35 0 64-29 64-64s-29-64-64-64-64 29-64 64 29 64 64 64z" />
<glyph unicode="&#xe096;" glyph-name="basket-minus" d="M320 320c177 0 320 143 320 320s-143 320-320 320-320-143-320-320 143-320 320-320zM920 396l256 443c18 31 7 70-23 88-31 17-70 7-88-24l-255-443c-18-30-7-70 23-87 31-18 70-7 87 23zM512 576h-384v128h384v-128zM1280-64l64 384c38 0 64 29 64 64v64c0 35-26 64-64 64h-283l-85-148c-35-61-114-82-175-47-61 36-82 114-47 175l12 20h-86c-51-146-187-250-350-255l54-321h896zM576 192c35 0 64-29 64-64s-29-64-64-64-64 29-64 64 29 64 64 64zM832 192c35 0 64-29 64-64s-29-64-64-64-64 29-64 64 29 64 64 64zM1088 192c35 0 64-29 64-64s-29-64-64-64-64 29-64 64 29 64 64 64z" />
<glyph unicode="&#xe09e;" glyph-name="map-marker" d="M512-64c0 0 320 527 320 704s-143 320-320 320-320-143-320-320 320-704 320-704zM512 832c106 0 192-86 192-192s-86-192-192-192-192 86-192 192 86 192 192 192zM512 512c71 0 128 57 128 128s-57 128-128 128-128-57-128-128 57-128 128-128z" />
<glyph unicode="&#xe0ad;" glyph-name="cup" horiz-adv-x="1152" d="M640 256l38 98s474-40 474 478h-192v128h-768v-128h-192c2-526 482-478 482-478l30-98h128zM64 768h128c30-151 106-273 201-346-166 21-329 186-329 346zM960 768h128c-29-178-153-314-310-343 93 73 153 194 182 343zM384 192l-64-256h512l-64 256h-384z" />
<glyph unicode="&#xe10b;" glyph-name="tooltip" d="M704 192h256c34 0 64 32 64 64v640c0 33-31 64-64 64h-896c-33 0-64-31-64-64v-640c0-32 31-64 64-64h256l192-256zM832 768h-640v64h640v-64zM832 576h-640v64h640v-64zM832 384h-640v64h640v-64z" />
<glyph unicode="&#xe11d;" glyph-name="at-circle" d="M512-64c283 0 512 229 512 512s-229 512-512 512-512-229-512-512 229-512 512-512zM298 551c-24-46-37-99-37-159 0-65 18-117 55-154 36-37 87-56 152-56 32 0 61 3 89 9 119 10 202-7 202-7v-76c-62 9-115 29-301-3-58 0-109 12-153 35s-77 56-100 98-34 91-34 146c0 75 16 142 49 201 32 59 79 105 139 139 60 33 127 50 201 50 86 0 154-22 203-67 49-44 73-106 73-186 0-46-8-90-26-130-17-40-41-71-72-93-30-23-65-34-103-34-24 0-43 5-58 16-16 10-26 25-30 44h-2c-14-21-29-36-46-46-17-9-37-14-60-14-34 0-61 11-80 32-19 22-29 53-29 93s9 77 28 112c18 35 43 63 76 83 32 21 68 31 108 31 50 0 94-7 133-22l-43-171c-3-11-6-22-8-31-2-8-3-17-3-26 0-18 8-27 23-27 18 0 35 8 51 26 15 17 28 40 37 69 10 29 14 58 14 87 0 57-16 101-50 132-33 30-82 45-146 45-55 0-104-12-148-38-44-25-79-61-104-108zM461 338c38 0 67 36 86 109l23 90c-10 3-21 4-33 4-22 0-42-7-59-21s-31-32-41-55c-9-23-14-47-14-71 0-17 3-31 10-41 6-10 16-15 28-15z" />
<glyph unicode="&#xe120;" glyph-name="delivery-non-stop" horiz-adv-x="1152" d="M704 670l92 88c-46 72-129 120-223 120-130 0-238-90-258-208h-88c21 164 167 290 345 290 119 0 224-55 286-141l63 59v-208h-217zM461 586l-108-95c46-68 127-114 220-114 129 0 237 91 258 209h87c-21-165-167-292-345-292-118 0-222 55-284 140l-65-57v209h237zM538-64h-51l125 320h51zM223 116c-5-10-12-20-20-28-9-9-18-17-29-23-10-7-21-14-32-21-11-6-21-14-32-21-10-8-19-17-27-27h149v-53h-231c0 18 3 33 8 46s12 24 21 34 20 20 32 28c12 9 25 18 39 26 6 5 14 10 22 14 7 5 15 10 21 16s12 12 16 19c5 7 7 16 7 25 0 14-5 26-14 34-8 7-20 11-34 11-9 0-17-2-23-5-7-4-12-10-16-17-4-6-6-14-8-22s-3-16-3-24h-61c0 17 2 33 7 48 4 14 12 26 21 37 10 11 22 20 36 26 15 6 32 9 51 9 14 0 28-2 41-6s24-11 34-19 18-17 24-29c6-11 9-24 9-39s-3-28-8-39zM697 23c9 10 20 20 32 28 12 9 25 18 38 26 7 5 15 10 22 14 8 5 15 10 22 16 6 6 12 12 16 19s6 16 6 25c0 14-4 26-13 34-9 7-20 11-34 11-9 0-17-2-23-5-7-4-12-10-16-17-4-6-7-14-8-22-2-8-3-16-3-24h-61c-1 17 2 33 6 48 5 14 12 26 22 37s22 20 36 26c15 6 32 9 50 9 15 0 29-2 42-6 12-4 23-11 33-19s18-17 24-29c6-11 9-24 9-39s-3-28-8-39c-5-10-12-20-20-28-9-9-18-17-29-23l-31-21c-11-6-21-14-32-21-10-8-19-17-27-27h148v-53h-230c0 18 2 33 8 46 5 13 12 24 21 34zM442 63h42v-50h-42v-70h-61v70h-132v55l136 174h57v-179zM1109-57h-61v70h-133v55l137 174h57v-179h42v-50h-42v-70zM380 167l-80-104h81v104h-1zM1047 167l-82-104h83v104h-1z" />
<glyph unicode="&#xe122;" glyph-name="hand-free" horiz-adv-x="1248" d="M0 640v320h192v-64h-128v-64h128v-64h-128v-128h-64zM450 676c-1 14-3 28-4 41-3 16-8 29-15 36-8 8-20 12-37 12l-74 3v-128h-64v320h169c14 0 26-2 37-7s21-11 29-19 14-17 18-28 7-22 7-34c0-19-4-35-12-49s-20-24-38-32c9-3 16-6 21-11 6-5 10-11 14-18 3-7 6-14 7-22 2-8 3-16 4-24 0-5 0-11 1-18l1-21c1-7 2-14 4-21 1-6 3-12 7-16h-69c-3 10-6 22-6 36zM832 960v-64h-192v-64h128v-64h-128v-64h192v-64h-256v320h256zM1152 960v-64h-192v-64h128v-64h-128v-64h192v-64h-256v320h256zM436 895c-8 7-20 10-36 10h-74v-90h74c16 0 28 4 36 11 7 7 11 19 11 35 0 15-4 27-11 34zM1041 515c34 15 42-18 42-18s-144-130-158-144c-18 5-35 27-27 41 16 31 101 103 143 121zM933 315c16 30 139 143 181 162 34 15 42-18 42-18l-196-185c-18 4-35 27-27 41zM64 480c35 0 64-29 64-64v-416c0-35-29-64-64-64s-64 29-64 64v416c0 35 29 64 64 64zM1232 333c-23-37-115-144-221-262-96-106-272-135-403-135-140 0-251 75-384 99-31 1-32 20-32 29v256c0 8-2 72 5 76 24 13 84 41 157 41 95 0 206-56 206-56h144c61 0 192-7 192-99 0-76-153-99-192-99-96 0-240 10-240 10s274-41 336-41 94 8 146 47c73 54 167 163 211 213 51 59 123-5 75-79z" />
<glyph unicode="&#xe123;" glyph-name="box-time-o" horiz-adv-x="1152" d="M0 768v128c0 35 29 64 64 64h896c35 0 64-29 64-64v-128h-1024zM960 832v64h-896v-64h896zM960 704v-143c-21 6-42 10-64 12v67h-768v-640h467c20-24 42-46 67-64h-534c-35 0-64 29-64 64v704h896zM864-64c-159 0-288 129-288 288s129 288 288 288 288-129 288-288-129-288-288-288zM864 448c-124 0-224-100-224-224s100-224 224-224 225 100 225 224-101 224-225 224zM992 192h-128c-18 0-32 14-32 32v128c0 18 14 32 32 32s32-14 32-32v-96h96c18 0 32-14 32-32s-14-32-32-32z" />
<glyph unicode="&#xe124;" glyph-name="box-lock-o" horiz-adv-x="1152" d="M0 768h1024v128c0 35-29 64-64 64h-896c-35 0-64-29-64-64v-128zM64 896h896v-64h-896v64zM960 704h-896v-704c0-35 29-64 64-64h448l11 64h-459v640h768v-128c23 0 44-5 64-12v204zM1152-64l-64 384h-64c0 71-57 128-128 128s-128-57-128-128h-64l-64-384h512zM896 384c35 0 64-29 64-64h-128c0 35 29 64 64 64z" />
<glyph unicode="&#xe125;" glyph-name="box-check-o" horiz-adv-x="1152" d="M0 768h1024v128c0 35-29 64-64 64h-896c-35 0-64-29-64-64v-128zM64 896h896v-64h-896v64zM960 704h-896v-704c0-35 29-64 64-64h534c-25 18-47 40-67 64h-467v640h768v-67c22-2 43-6 64-12v143zM864-64c159 0 288 129 288 288s-129 288-288 288-288-129-288-288 129-288 288-288zM1022 337c13-12 13-33 0-45l-181-181c-12-13-32-13-45 0l-90 90c-13 13-13 33 0 46 12 12 32 12 45 0l68-68 158 158c13 13 33 13 45 0z" />
<glyph unicode="&#xe12b;" glyph-name="list-check" horiz-adv-x="1280" d="M288 768c53 0 96 43 96 96s-43 96-96 96-96-43-96-96 43-96 96-96zM672 768h512c53 0 96 43 96 96s-43 96-96 96h-512c-53 0-96-43-96-96s43-96 96-96zM320 448l-198 140-122-138 320-258 384 390-128 122zM800 320h384c53 0 96 43 96 96s-43 96-96 96h-384c-53 0-96-43-96-96s43-96 96-96zM288 128c-53 0-96-43-96-96s43-96 96-96 96 43 96 96-43 96-96 96zM1184 128h-512c-53 0-96-43-96-96s43-96 96-96h512c53 0 96 43 96 96s-43 96-96 96z" />
<glyph unicode="&#xe12d;" glyph-name="envelope-open" d="M1024-64v640l-512 384-512-384v-640h1024zM960 398l-128-96v210h-640v-208l-128 96v176h896v-178zM512 64l-256 192v192h512v-193zM320 384v-64h384v64h-384zM640 256h-256v-64h256v64z" />
<glyph unicode="&#xe135;" glyph-name="label-star-check" d="M828 584l46 226-226-45-136 195-127-191-235 41 46-225-196-137 195-136-45-226 225 46 137-196 127 192 235-42-49 222 199 140zM738 557l-271-271-46 45-135 136 45 45 136-136 226 227z" />
<glyph unicode="&#xe136;" glyph-name="label-star-usd" d="M828 584l46 226-226-45-136 195-127-191-235 41 46-225-196-137 195-136-45-226 225 46 137-196 127 192 235-42-49 222 199 140zM670 374c1-15 2-28 2-39 0-10-2-23-6-38-5-16-12-31-23-45-11-15-26-28-44-39-15-10-34-15-55-18v-67h-64v68c-35 6-65 19-86 43-24 28-38 69-42 123h81c0-26 5-47 17-62 9-10 19-17 30-22v142l-4 1c-14 4-28 10-42 16s-26 14-37 25c-11 10-20 23-26 38-7 15-10 34-10 57 0 24 4 44 11 62 8 18 18 33 30 45s26 21 42 28c12 5 24 6 36 9v67h64v-68c11-3 23-5 33-9 15-7 28-16 40-28 11-11 21-26 28-43 7-18 11-38 13-62h-82c0 18-5 34-14 47-6 7-12 12-18 15v-122c4-1 9-3 14-4 28-10 50-21 65-34 15-14 27-28 34-43 7-14 12-29 13-43zM443 567c0-15 4-27 12-35 5-6 14-10 25-15v104c-1 0-3 0-4-1-7-2-12-5-17-10s-9-11-12-18-4-15-4-25zM570 290c6 5 11 12 15 20 3 8 5 18 5 29 0 17-4 31-14 40-7 6-18 12-32 18v-121c2 0 4 1 6 1 7 3 14 8 20 13z" />
<glyph unicode="&#xe138;" glyph-name="label-star-percent" d="M828 584l46 226-226-45-136 195-127-191-235 41 46-225-196-137 195-136-45-226 225 46 137-196 127 192 235-42-49 222 199 140zM368 704c62 0 112-50 112-112s-50-112-112-112-112 50-112 112 50 112 112 112zM652 695c15-8 20-27 11-42l-281-441c-8-15-27-20-42-11-15 8-20 27-11 42l281 441c8 15 27 20 42 11zM368 544c27 0 48 21 48 48s-21 48-48 48-48-21-48-48 21-48 48-48zM656 416c62 0 112-50 112-112s-50-112-112-112-112 50-112 112 50 112 112 112zM656 256c27 0 48 21 48 48s-21 48-48 48-48-21-48-48 21-48 48-48z" />
<glyph unicode="&#xe139;" glyph-name="label-star-1" d="M828 584l46 226-226-45-136 195-127-191-235 41 46-225-196-137 195-136-45-226 225 46 137-196 127 192 235-42-49 222 199 140zM512 704c141 0 256-115 256-256s-115-256-256-256-256 115-256 256 115 256 256 256zM482 256h64v320h-64c-3-24 4-40-10-51-8-5-16-8-25-10s-19-3-29-3v-64h64v-192z" />
<glyph unicode="&#xe13b;" glyph-name="warning-circle2" d="M512-64c283 0 512 229 512 512s-229 512-512 512-512-229-512-512 229-512 512-512zM415 832h194c17 0 31-13 31-30l-31-289c-5-34-9-65-62-65h-70c-46 0-60 34-62 65l-31 289c0 17 14 30 31 30zM512 320c71 0 128-57 128-128s-57-128-128-128-128 57-128 128 57 128 128 128z" />
<glyph unicode="&#xe13e;" glyph-name="apple" d="M698 579c-65 0-112-24-154-67v192c36 10 95 32 128 64 73 71 64 192 64 192s-139 0-212-71c-39-39-57-91-66-131-72 70-170 74-170 74s-18-119 54-190c43-42 97-59 138-66v-64c-41 38-93 67-154 67-127 0-230-100-230-224 0-27 5-53 14-77 4-37 89-223 127-263 29-47 82-79 142-79 55 0 103 26 133 66 30-40 78-66 133-66 62 0 116 33 144 82 78 108 111 215 120 248 12 27 19 57 19 89 0 124-103 224-230 224z" />
<glyph unicode="&#xe141;" glyph-name="tag-check" horiz-adv-x="1152" d="M1152 450l-320 318h-768c-35 0-64-29-64-64v-512c0-35 29-64 64-64h768zM674 561l-271-271-46 45-135 136 45 45 136-136 226 226zM960 512c35 0 64-29 64-64s-29-64-64-64-64 29-64 64 29 64 64 64z" />
<glyph unicode="&#xe142;" glyph-name="tag-empty" horiz-adv-x="1152" d="M1152 450l-320 318h-768c-35 0-64-29-64-64v-512c0-35 29-64 64-64h768zM960 512c35 0 64-29 64-64s-29-64-64-64-64 29-64 64 29 64 64 64z" />
<glyph unicode="&#xe143;" glyph-name="tag-new" horiz-adv-x="1152" d="M1152 450l-320 318h-768c-35 0-64-29-64-64v-512c0-35 29-64 64-64h768zM271 320h-54l-102 171h-1v-171h-50v256h53l103-172v172h51v-256zM500 320h-185v256h183v-47h-130v-55h119v-44h-119v-63h132v-47zM832 576l-66-256h-53l-42 174-41-174h-55l-64 256h53l39-174h1l42 174h51l41-176h1l40 176h53zM960 512c35 0 64-29 64-64s-29-64-64-64-64 29-64 64 29 64 64 64z" />
<glyph unicode="&#xe144;" glyph-name="price-tag-usd" horiz-adv-x="1152" d="M1152 450l-320 318h-768c-35 0-64-29-64-64v-512c0-35 29-64 64-64h768zM574 389c1-12 2-23 2-32 0-8-2-18-5-30s-9-24-18-36-21-22-35-31c-12-8-27-12-44-15v-53h-52v54c-28 5-52 16-68 35-20 22-31 55-34 98h65c-1-21 4-37 14-49 6-9 14-14 23-18v113c-1 1-2 1-3 1-11 4-22 8-33 13s-21 12-30 20-16 18-21 31c-5 12-8 27-8 45 0 19 3 36 9 50s14 26 24 36c10 9 21 17 34 22 9 4 19 5 28 7v54h52v-55c9-2 18-3 26-7 12-5 23-13 32-22s17-21 22-35c6-14 10-30 11-49h-66c0 15-4 27-11 37-4 6-9 10-14 12v-97c3-1 7-2 11-4 22-7 40-16 52-27 12-10 21-22 27-33 6-12 9-24 10-35zM393 543c0-12 3-21 9-28 5-4 12-8 20-11v83c-1-1-2-1-3-1-5-2-10-5-14-9-3-3-7-8-9-14s-3-12-3-20zM960 512c35 0 64-29 64-64s-29-64-64-64-64 29-64 64 29 64 64 64zM494 322c5 4 9 9 12 16 3 6 5 14 5 23 0 14-4 24-12 32-5 5-14 10-25 14v-97c1 1 3 1 4 1 6 3 12 6 16 11z" />
<glyph unicode="&#xe146;" glyph-name="tag-percent" horiz-adv-x="1152" d="M1152 450l-320 318h-768c-35 0-64-29-64-64v-512c0-35 29-64 64-64h768zM304 704c62 0 112-50 112-112s-50-112-112-112-112 50-112 112 50 112 112 112zM588 695c15-8 20-27 11-42l-281-441c-8-15-27-20-42-11-15 8-20 27-11 42l281 441c8 15 27 20 42 11zM304 544c27 0 48 21 48 48s-21 48-48 48-48-21-48-48 21-48 48-48zM960 512c35 0 64-29 64-64s-29-64-64-64-64 29-64 64 29 64 64 64zM592 416c62 0 112-50 112-112s-50-112-112-112-112 50-112 112 50 112 112 112zM592 256c27 0 48 21 48 48s-21 48-48 48-48-21-48-48 21-48 48-48z" />
<glyph unicode="&#xe147;" glyph-name="label-circle" d="M512-64c230 0 416 186 416 416 0 219-169 396-384 413v163c0 18-14 32-32 32s-32-14-32-32v-163c-215-17-384-194-384-413 0-230 186-416 416-416zM544 608v90c37-14 64-48 64-90 0-53-43-96-96-96s-96 43-96 96c0 42 27 76 64 90v-90c0-18 14-32 32-32s32 14 32 32zM770 429l-271-271-46 45-135 136 45 45 136-136 226 227z" />
<glyph unicode="&#xe14b;" glyph-name="warning" d="M682 417l54 495c0 27-24 48-54 48h-340c-30 0-54-21-54-48l54-495c3-46 28-97 108-97h124c92 0 100 46 108 97zM512 256c-88 0-160-72-160-160s72-160 160-160 160 72 160 160-72 160-160 160z" />
<glyph unicode="&#xe151;" glyph-name="shopping-cart" horiz-adv-x="1152" d="M1152 704h-824l-61 256h-267v-64h212l46-192 126-512h640l48 192h-668l-15 64h699l16 64h-730l-16 64h762zM544 128c-53 0-96-43-96-96s43-96 96-96 96 43 96 96-43 96-96 96zM864 128c-53 0-96-43-96-96s43-96 96-96 96 43 96 96-43 96-96 96z" />
<glyph unicode="&#xe152;" glyph-name="shopping-cart-full" horiz-adv-x="1152" d="M1152 704h-64v256h-320v-256h-64v192h-256v-192h-120l-61 256h-267v-64h212l46-192 126-512h640l48 192h-668l-15 64h699l16 64h-730l-16 64h762zM544 128c-53 0-96-43-96-96s43-96 96-96 96 43 96 96-43 96-96 96zM864 128c-53 0-96-43-96-96s43-96 96-96 96 43 96 96-43 96-96 96z" />
<glyph unicode="&#xe153;" glyph-name="shopping-cart-full2" horiz-adv-x="1152" d="M1152 704h-82c11 19 18 41 18 64 0 71-57 128-128 128s-128-57-128-128c0-23 7-45 18-64h-18c0 71-57 128-128 128-27 0-51-8-72-22-17 50-64 86-120 86-71 0-128-57-128-128 0-23 7-45 18-64h-74l-61 256h-267v-64h212l46-192 126-512h640l48 192h-668l-15 64h699l16 64h-730l-16 64h762zM544 128c-53 0-96-43-96-96s43-96 96-96 96 43 96 96-43 96-96 96zM864 128c-53 0-96-43-96-96s43-96 96-96 96 43 96 96-43 96-96 96z" />
<glyph unicode="&#xe154;" glyph-name="shopping-cart-plus" horiz-adv-x="1280" d="M374 512h503c49-39 111-64 179-64h-667l15-64h668l-48-192h-640l-126 512-46 192h-212v64h267l61-256h443c5-47 21-91 46-128h-459zM1056 512c-124 0-224 100-224 224s100 224 224 224 224-100 224-224-100-224-224-224zM1088 896h-64v-128h-128v-64h128v-128h64v128h128v64h-128v128zM544 128c53 0 96-43 96-96s-43-96-96-96-96 43-96 96 43 96 96 96zM864 128c53 0 96-43 96-96s-43-96-96-96-96 43-96 96 43 96 96 96z" />
<glyph unicode="&#xe155;" glyph-name="shopping-cart-minus" horiz-adv-x="1280" d="M358 576h459c-25 37-41 81-46 128h-443l-61 256h-267v-64h212l46-192 126-512h640l48 192h-668l-15 64h667c-68 0-130 25-179 64h-503zM1056 512c124 0 224 100 224 224s-100 224-224 224-224-100-224-224 100-224 224-224zM1216 768v-64h-320v64h320zM544 128c-53 0-96-43-96-96s43-96 96-96 96 43 96 96-43 96-96 96zM864 128c-53 0-96-43-96-96s43-96 96-96 96 43 96 96-43 96-96 96z" />
<glyph unicode="&#xe156;" glyph-name="shopping-cart2" d="M926 512l-290 411c-19 29-58 37-87 18s-37-59-18-88l241-341h-520l241 341c19 29 11 69-18 88s-68 11-87-18l-290-411h-98l28-128h968l28 128h-98zM981 320h-938l14-64h910zM953 192h-882l57-256h768z" />
<glyph unicode="&#xe157;" glyph-name="shopping-cart3" d="M1024 512h-448v384c0 35-29 64-64 64s-64-29-64-64v-210l-105 182c-18 30-57 41-88 23-30-18-41-57-23-87l168-292h-400l28-128h968zM981 320h-938l14-64h910zM953 192h-882l57-256h768z" />
<glyph unicode="&#xe159;" glyph-name="credit-cards" horiz-adv-x="1280" d="M320 928h896c35 0 64-29 64-64v-256h-192v128h-832v128c0 35 29 64 64 64zM64 672h896c35 0 64-29 64-64v-320h-1024v320c0 35 29 64 64 64zM960 480h-128v-128h128v128zM1088 480h192v-192c0-35-29-64-64-64h-128v256zM0 160h1024v-128c0-35-29-64-64-64h-896c-35 0-64 29-64 64v128z" />
<glyph unicode="&#xe15b;" glyph-name="check-circle-o2" d="M512-64c283 0 512 229 512 512 0 31-3 62-9 92l-1 7c-5 28-14 56-24 82l-3 10c-11 26-23 50-37 74l-7 10c-14 23-30 44-48 64l-4 5-89-97-290-331-214 186-105-122 319-300 369 420c9-32 15-65 15-100 0-212-172-384-384-384s-384 172-384 384 172 384 384 384c71 0 136-19 192-53l90 96c-81 54-178 85-282 85-283 0-512-229-512-512s229-512 512-512z" />
<glyph unicode="&#xe160;" glyph-name="piggy-bank" d="M512 576c-106 0-192 86-192 192s86 192 192 192 192-86 192-192-86-192-192-192zM946 347v-11c0-116-72-218-182-282 1-7 4-14 4-22 0-53-43-96-96-96-39 0-72 23-87 57-19-3-59-7-83-7-18 0-44 2-64 5-16-32-48-55-86-55-53 0-96 43-96 96 0 4 2 8 2 12-76 40-137 98-170 167h-69c-10 0-19 8-19 19v148c0 10 9 19 19 19h46c17 73 61 138 126 188l-25 53c-7 14-1 30 13 37 14 6 30 0 37-14l26-42c15 9 32 16 48 23 44-77 126-130 222-130 93 0 173 50 218 124 109-52 188-139 210-242 29 8 56 36 67 64 17-9 17-24 17-24s-4-67-78-87zM256 512c-35 0-64-29-64-64s29-64 64-64 64 29 64 64-29 64-64 64z" />
<glyph unicode="&#xe162;" glyph-name="wallet" d="M448 256v64c0 71 57 128 128 128h320v512h-640v-128h-128v-192h-64c-35 0-64-29-64-64v-576c0-35 29-64 64-64h768c35 0 64 29 64 64v128h-320c-71 0-128 57-128 128zM768 832h-448v64h512v-256h-64v192zM704 640h-512v128h512v-128zM576 192h384c35 0 64 29 64 64v64c0 35-29 64-64 64h-384c-35 0-64-29-64-64v-64c0-35 29-64 64-64zM608 320c18 0 32-14 32-32s-14-32-32-32-32 14-32 32 14 32 32 32z" />
<glyph unicode="&#xe163;" glyph-name="box" d="M320 768h-256l192 192h248zM979 960l-192-192h-302l182 192h312zM1024 914v-722l-192-192v721zM768 704v-768h-768v768h320v-128h128v128h320zM320 256l-94 128-98-128h64v-256h64v256h64z" />
<glyph unicode="&#xe165;" glyph-name="money" horiz-adv-x="1152" d="M0 701h511l452 262 151-262h38v-768h-1152v768zM845 784c-6 9-9 20-10 30l-196-113h128l100 58c-9 7-16 15-22 25zM1040 701l-39 69c-7-8-15-16-25-22-10-5-20-8-31-10l21-37h74zM966 637h-780c3-10 6-20 6-32 0-11-3-22-6-32h780c-3 10-6 21-6 32 0 12 3 22 6 32zM128 119v397c-10-4-21-7-32-7s-22 3-32 7v-397c10 4 21 6 32 6s22-2 32-6zM1024 516v-397c10 4 21 6 32 6s22-2 32-6v397c-10-4-21-7-32-7s-22 3-32 7zM768 317c0 106-86 192-192 192s-192-86-192-192 86-192 192-192 192 86 192 192zM186-3h780c-3 10-6 21-6 32 0 12 3 22 6 32h-780c3-10 6-20 6-32 0-11-3-22-6-32z" />
<glyph unicode="&#xe166;" glyph-name="coins" d="M512 704c177 0 320 29 320 64v128c0 35-143 64-320 64s-320-29-320-64v-128c0-35 143-64 320-64zM576 512c177 0 320 29 320 64v128c0-35-143-64-320-64s-320 29-320 64v-128c0-35 143-64 320-64zM512 320c177 0 320 29 320 64v128c0-35-143-64-320-64s-320 29-320 64v-128c0-35 143-64 320-64zM768 192v128c0-35-143-64-320-64s-320 29-320 64v-128c0-35 143-64 320-64s320 29 320 64zM512 64c-177 0-320 29-320 64v-128c0-35 143-64 320-64s320 29 320 64v128c0-35-143-64-320-64z" />
<glyph unicode="&#xe167;" glyph-name="open-sign" horiz-adv-x="1536" d="M123-21h1290c32 0 59 26 59 58v528c0 32-27 59-59 59h-70c-132 96-359 171-484 209-2 47-42 84-91 84-50 0-90-37-92-84-125-38-351-114-483-209h-70c-32 0-59-27-59-59v-528c0-32 27-58 59-58zM842 781c102-28 288-85 414-157h-976c126 72 310 128 413 157 16-23 43-40 75-40 31 0 58 17 74 40zM181 213c0 98 66 176 147 176s147-78 147-176c0-97-66-176-147-176s-147 79-147 176zM533 389h147c49 0 88-39 88-88v-58c0-49-39-88-88-88h-88v-118h-59v352zM1061 389v-58h-176v-59h118v-59h-118v-117h176v-59h-234v352h234zM1355 37h-59l-117 225v-225h-59v352h59l117-224v224h59v-352zM416 213c0 65-39 118-88 118s-88-53-88-118 39-117 88-117 88 52 88 117zM709 243v58c0 17-12 30-29 30h-88v-118h88c17 0 29 13 29 30z" />
<glyph unicode="&#xe168;" glyph-name="gift" d="M448 761h60c-4 53-45 112-110 152-91 54-194 50-231-11-24-40-12-93 24-141h-191v-192h448v192zM1024 761h-198c29 44 37 92 15 128-35 59-133 64-220 10-59-36-97-89-104-138h59v-192h448v192zM365 858c47-29 77-67 80-97h-163c-49 35-76 81-60 108 18 30 82 25 143-11zM789 857c14-24-6-63-45-96h-166c7 27 34 60 74 85 58 36 119 40 137 11zM448 505h-384v-576h384v576zM576 505v-576h384v576h-384z" />
<glyph unicode="&#xe16a;" glyph-name="desert" horiz-adv-x="1280" d="M899 838c26 33 78 78 175 95l-5 27c-68-11-145-40-200-109 12-4 22-8 30-13zM963 672c15 70 0 131-105 152-106 22-145-29-161-98-15-70 32-138 106-153 73-14 145 30 160 99zM1013 217c148 0 267 103 267 230 0 123-76 240-239 246-2-14-6-28-11-43-33-107-151-169-263-138-107 30-170 120-146 222-22 11-150 78-284-97l-4-7s-33-80-150-82c-1 0 0 1 0 1s-183 68-183-166c0-92 78-166 173-166 65 0 120 33 150 83 21 27 54 34 88 20 43-25 94-39 149-39 82 0 159 52 208 103 39-86 132-167 245-167zM367 261c-13-23-32-43-54-57l135-268h576l72 221c-22-2-45-4-69-4-128 0-237 41-277 98-51-29-115-47-183-47-76 0-146 22-200 57z" />
<glyph unicode="&#xe16b;" glyph-name="question-circle" d="M512-64c283 0 512 229 512 512s-229 512-512 512-512-229-512-512 229-512 512-512zM693 703c7-22 11-43 11-62 0-32-4-58-11-78-8-21-17-38-29-53-11-14-23-27-37-37s-27-20-39-31c-12-10-23-22-32-35s-15-30-18-49v-38h-123v45c2 28 7 52 15 71 9 19 18 35 29 49 11 13 23 25 35 35s23 20 33 30c11 10 19 21 25 32 7 12 10 27 9 45 0 30-7 53-20 67-14 15-33 22-57 22-17 0-31-3-43-10s-21-16-29-28c-7-12-13-25-17-41-3-15-5-32-5-50h-134c1 36 6 69 17 98 10 30 25 56 44 78 20 21 43 38 70 51 27 12 57 18 90 18 43 0 79-6 108-19s52-29 70-48c17-19 30-40 38-62zM384 256h192v-192h-192v192z" />
<glyph unicode="&#xe16d;" glyph-name="box-upload" horiz-adv-x="1408" d="M704 576v128h-192l228 256 220-256h-192v-128h-64zM660 517l-404 187-254-159 384-193zM768-64l448 128v640l-448-192v-576zM1408 448l-128 256v-192zM706 481l-320-194-128 65-2-224 448-192z" />
<glyph unicode="&#xe16e;" glyph-name="coffee" d="M992 448v-64h-126v-15c0-145-85-292-194-369h192v-64h-832v64h192c-109 77-192 224-192 369v79h320c-84 214 0 512 0 512h64c-75-296 0-512 0-512h576zM608 512h-64s48 122 0 256h64s43-117 0-256zM449 18c189 0 351 172 351 366h-704c0-194 164-366 353-366z" />
<glyph unicode="&#xe172;" glyph-name="store" d="M923 896h-818l11 64h796zM110 526c-49 15-78 66-64 115l49 191h839l45-191c13-49-17-100-67-114-42-11-83 10-103 46l-20 51s-4-104-93-104c-88 0-94 92-94 96v-3c0-51-42-93-94-93-76 0-95 90-95 90s-25-90-92-90c-82 0-90 88-90 88s-46-103-121-82zM992 567v-631h-128v384h-192v-384h-640v640c0-71 43-128 96-128 81 0 97 61 97 61s28-61 95-61c85 0 99 61 99 61s30-61 93-61c66 0 92 60 92 60s17-60 100-60c76 0 95 57 95 57s26-57 97-57c51 0 92 53 95 119h1zM416 320h-320v-256h320v256z" />
<glyph unicode="&#xe173;" glyph-name="certificate" d="M928-64v1024h-832v-1024h128v64h-64v896h704v-896h-320v-64h384zM736 768h-448v-64h448v64zM736 640h-448v-64h448v64zM608 512h-320v-64h320v64zM384 384c-53 0-96-43-96-96s43-96 96-96 96 43 96 96-43 96-96 96zM384 256c-18 0-32 14-32 32s14 32 32 32 32-14 32-32-14-32-32-32zM480-64v225c-27-21-60-33-96-33s-69 12-96 33v-225l98 64z" />
<glyph unicode="&#xe174;" glyph-name="clothes-women" horiz-adv-x="1152" d="M343 770l104 82-89 30 31 58c31 9 58 16 82 20l95-499zM568 461l110 499c19-4 40-8 63-15l34-63-89-30 104-82zM981-64l-138 529s-38-92-38-168c0-75 90-216 90-216s-145-114-302 30v313l253 354-85 63 63 23-38 67c27-10 56-22 87-38h1c5-2 10-5 15-8 1-1 3-1 4-2 4-2 9-5 14-7 1-1 2-2 4-3 5-3 11-7 17-10 0-2 224-901 224-901zM287 778l257-359v-321c-151-124-287-17-287-17s90 141 90 216c0 76-38 168-38 168l-138-529-171 26s224 899 224 902c42 25 82 44 119 59l-34-59 64-23zM462 346c19 0 34 15 34 33 0 19-15 34-34 34-18 0-33-15-33-34 0-18 15-33 33-33zM462 193c19 0 34 15 34 34 0 18-15 33-34 33-18 0-33-15-33-33 0-19 15-34 33-34z" />
<glyph unicode="&#xe175;" glyph-name="shoes-women" horiz-adv-x="1131" d="M257-59l1 332s151-183 195-235c74-107 188-98 226-95 39 3 274 27 410 126 45 40 67 116 0 128-84-11-185-73-312 44-126 117-200 532-200 532l-64-64-128 192-256 64v-192s-144-183-128-320c17-137 49-147 73-225 37-99 55-287 55-287h128z" />
<glyph unicode="&#xe176;" glyph-name="hat-women" horiz-adv-x="1408" d="M715 433c144 0 272 49 351 114-42 178-166 303-363 308-185-10-306-120-355-282 77-77 212-140 367-140zM1368 167c28 64 35 154-57 207-36 20-130 43-225 62-77-68-214-113-371-113-201 0-370 74-420 175-112-8-236-35-262-106-38-107 27-147 114-202 141-74 372 29 577-4 118-11 230-130 365-138 134-7 252 56 279 119z" />
<glyph unicode="&#xe177;" glyph-name="skirt" horiz-adv-x="1408" d="M703 653c71 0 128 72 128 160s-57 160-128 160c-70 0-128-72-128-160s58-160 128-160zM988 132c78 9 103 68 170 105s159 58 159 58l-229 422v128h-192v-64c0-108-87-192-192-192s-192 84-192 192v64h-192v-128l-233-426s111 4 183-15c72-20 87-119 194-148s196 43 290 46c93 4 155-52 234-42zM1226 81c77 43 182 67 182 67l-55 74c-37-11-86-29-127-52-76-42-106-109-195-120s-161 53-268 49-209-86-332-53c-122 33-139 146-222 169-46 13-104 17-148 18l-61-89s126 4 209-18c83-23 100-136 222-170 123-33 225 50 332 54s179-60 268-49 119 78 195 120z" />
<glyph unicode="&#xe178;" glyph-name="shoes-women2" horiz-adv-x="1408" d="M701-64h-640c-71 0-93 129 3 150s381 106 381 106l832 768s155-169 128-384-128-640-128-640h-64l-128 448z" />
<glyph unicode="&#xe179;" glyph-name="cog" d="M884 321l4 2c136 54 136 59 136 73v109c0 14 0 19-136 69l-4 1-19 47 2 5c57 133 53 137 44 147l-77 76c-3 3-9 6-14 6-4 0-17 0-131-53l-4-2-47 19-2 5c-53 135-59 135-72 135h-109c-13 0-19 0-68-135l-2-5-47-19-4 1c-77 33-122 50-134 50-4 0-10-2-13-5l-77-77c-10-10-14-14 47-144l2-5-19-47-5-1c-135-54-135-59-135-73v-109c0-13 0-19 136-69l4-2 19-46-2-4c-57-134-54-138-44-148l77-76c3-3 9-6 14-6 4 0 17 0 131 53l4 2 47-19 2-5c53-135 59-135 72-135h109c13 0 19 0 68 135l2 5 47 19 4-1c77-34 122-50 134-50 4 0 10 2 13 5l77 77c10 10 14 14-47 144l-2 5zM512 640c106 0 192-86 192-192s-86-192-192-192-192 86-192 192 86 192 192 192z" />
<glyph unicode="&#xe17a;" glyph-name="cocktail" d="M608 960c141 0 256-115 256-256s-115-256-256-256v-448c0-35-29-64-64-64h-320c-35 0-64 29-64 64v704h85l-85 237 62 19 91-256h39c0 141 115 256 256 256zM608 704v-192c106 0 192 86 192 192s-86 192-192 192-192-86-192-192h192zM544 640h-320v-576c0-35 29-64 64-64h192c35 0 64 29 64 64v576zM416 64h-64c-35 0-64 29-64 64v256h192v-256c0-35-29-64-64-64z" />
<glyph unicode="&#xe17b;" glyph-name="delete-circle" d="M512-64c283 0 512 229 512 512s-229 512-512 512-512-229-512-512 229-512 512-512zM632 448l200-200-120-120-200 200-200-200-120 120 200 200-200 200 120 120 200-200 200 200 120-120z" />
<glyph unicode="&#xe17d;" glyph-name="box-open" horiz-adv-x="1408" d="M786 956l-458-130 407-174 458 130zM658 616l-402 156-256-128 384-192zM1408 516l-128 256v-192zM1216 708l-448-119v-649l448 128v640zM384 388l-128 64v-320l448-192v640z" />
<glyph unicode="&#xe180;" glyph-name="cogs" d="M976 723h18c16 0 30 14 30 31v28c0 17-14 31-30 31h-18c-1 0-4 2-5 4l-6 15c-1 2-1 5 0 6l13 13c12 12 12 31 0 43l-20 20c-6 6-14 9-22 9s-15-3-21-9l-13-13s-1-1-3-1c-1 0-2 1-3 1l-15 6c-2 1-4 4-4 5v18c0 16-14 30-31 30h-28c-17 0-31-14-31-30v-18c0-1-2-4-4-5l-15-6c-1 0-2-1-3-1-2 0-3 1-3 1l-13 13c-6 6-13 9-21 9s-16-3-22-9l-20-20c-12-12-12-31 0-43l13-13c1-1 1-4 0-6l-6-15c-1-2-4-4-5-4h-18c-16 0-30-14-30-31v-28c0-17 14-31 30-31h18c1 0 4-2 5-4l6-15c1-2 1-5 0-6l-13-13c-12-12-12-31 0-43l20-20c6-6 14-9 22-9s15 3 21 9l13 13s1 1 3 1c1 0 2-1 3-1l15-6c2-1 4-4 4-5v-18c0-16 14-30 31-30h28c17 0 31 14 31 30v18c0 1 2 4 4 5l15 6c1 0 2 1 3 1 2 0 3-1 3-1l13-13c6-6 13-9 21-9s16 3 22 9l20 20c6 6 9 14 9 22s-3 15-9 21l-13 13c-1 1-1 4 0 6l6 15c1 2 4 4 5 4zM832 827c32 0 59-27 59-59s-27-59-59-59-59 27-59 59 27 59 59 59zM691 537c0 13-5 24-14 33l-43 43c-9 9-20 14-33 14s-24-5-33-14l-26-26c-5-5-12-7-19-7-5 0-9 1-13 3l-29 12c-11 4-20 15-20 25v37c0 26-21 47-47 47h-60c-26 0-47-21-47-47v-37c0-10-9-21-20-25l-29-12c-4-2-8-3-13-3-7 0-14 2-19 7l-26 26c-9 9-20 14-33 14s-24-5-33-14l-43-43c-18-18-18-48 0-66l26-26c7-7 9-22 4-32l-12-29c-4-11-15-20-25-20h-37c-26 0-47-21-47-47v-60c0-26 21-47 47-47h37c10 0 21-9 25-20l12-29c5-10 3-25-4-32l-26-26c-18-18-18-48 0-66l43-43c9-9 20-14 33-14s24 5 33 14l26 26c5 5 12 7 19 7 5 0 9-1 13-3l29-12c11-4 20-15 20-25v-37c0-26 21-47 47-47h60c26 0 47 21 47 47v37c0 10 9 21 20 25l29 12c4 2 8 3 13 3 7 0 14-2 19-7l26-26c9-9 20-14 33-14s24 5 33 14l43 43c18 18 18 48 0 66l-26 26c-7 7-9 22-4 32l12 29c4 11 15 20 25 20h37c26 0 47 21 47 47v60c0 26-21 47-47 47h-37c-10 0-21 9-25 20l-12 29c-5 10-3 25 4 32l26 26c9 9 14 20 14 33zM384 448c71 0 128-57 128-128s-57-128-128-128-128 57-128 128 57 128 128 128z" />
<glyph unicode="&#xe181;" glyph-name="cogs2" d="M566 604l-38-4c-6-20-14-39-24-57l25-32c8-10 7-26-2-36l-45-45c-10-10-25-11-36-2l-32 25c-18-10-37-18-57-23l-4-41c-2-14-14-24-27-24h-64c-14 0-26 10-28 24l-4 42c-19 6-37 13-54 23l-33-26c-10-9-26-8-35 2l-45 45c-10 10-11 26-2 37l26 33c-9 16-17 34-22 52l-41 4c-14 2-24 14-24 27v65c0 14 10 26 24 28l39 4c5 20 12 39 22 57l-24 31c-9 11-8 27 2 36l45 46c9 9 25 10 35 2l30-24c19 12 39 20 60 26l4 37c2 14 13 24 28 24h63c14 0 25-10 27-24l4-37c21-6 40-14 59-25l28 23c11 8 26 8 36-2l45-46c9-9 10-25 2-36l-23-29c9-18 17-37 22-56l38-5c13-1 24-13 24-28v-64c0-14-11-25-24-27zM297 771c-59 0-107-47-107-107 0-58 48-106 107-106 58 0 105 48 105 106 0 60-47 107-105 107zM1002 355l-28-6c-3-17-8-34-16-50l21-22c10-10 10-26 1-37l-30-35c-9-11-25-15-37-6l-26 17c-14-10-30-18-47-25l-1-31c0-14-12-26-26-27l-47-4c-14-1-27 9-30 23l-6 31c-17 3-32 10-48 17l-23-23c-10-10-26-10-37-1l-35 31c-11 9-13 25-6 37l18 26c-9 14-17 28-22 43l-32 1c-14 0-26 11-27 26l-4 46c-1 14 9 27 23 29l29 6c3 18 8 34 15 50l-21 22c-9 10-10 26-1 37l30 36c9 11 25 13 37 5l24-15c15 11 31 19 49 26l1 27c1 14 12 26 26 27l47 4c14 1 27-9 30-22l5-27c18-4 36-9 52-17l20 18c10 10 26 10 37 1l36-30c10-9 13-25 5-37l-16-23c10-14 18-30 24-46l28-1c14 0 26-11 27-26l4-46c1-14-9-27-23-29zM762 477c-49-4-87-48-82-97 4-50 48-87 99-83 50 4 87 48 82 98-4 50-48 87-99 82zM216 168l18 2c3 13 8 26 15 38l-11 14c-8 10-7 25 2 34l20 19c10 9 24 10 35 2l13-11c12 7 25 12 39 16l2 16c2 13 13 23 26 23h26c14-1 25-11 26-24l2-16c13-4 26-9 37-17l13 10c11 8 25 7 35-2l18-19c9-10 10-24 2-35l-11-13c6-11 11-24 14-37l17-2c13-2 23-13 23-26l-1-27c0-13-10-24-23-25l-17-2c-4-13-9-25-16-36l11-15c8-10 7-25-2-34l-19-19c-9-9-24-10-35-1l-14 11c-12-6-24-11-38-14l-2-19c-2-13-13-23-26-23l-26 1c-14 0-25 10-26 23l-2 20c-12 3-24 8-35 15l-15-12c-11-8-25-7-36 2l-18 19c-9 10-10 24-2 35l13 15c-6 11-11 22-14 34l-19 2c-13 2-23 13-23 26l1 27c0 13 10 24 23 25zM385 61c38 0 69 30 69 68 1 38-30 70-67 70-38 0-69-31-70-69 0-37 30-68 68-69z" />
<glyph unicode="&#xe182;" glyph-name="cog2" d="M983 613c-39-36-64-64-80-82 6-27 8-55 8-83 0-31-3-61-10-91 15-19 40-48 79-84 0 0 8-4-42-89-49-85-56-79-56-79-52 19-90 28-114 33-38-33-83-59-132-75-8-23-20-62-32-118 0 0 1-9-95-9s-95 9-95 9c-12 58-24 97-32 120-50 17-95 44-134 78-23-4-61-12-114-30 0 0-7-5-55 81-47 85-39 89-39 89 39 36 64 64 80 82-6 27-8 55-8 83 0 31 3 62 10 91-15 19-40 48-79 84 0 0-8 4 42 89 49 85 56 79 56 79 53-19 90-28 114-33 38 33 83 59 132 75 8 23 20 62 32 118 0 0-1 9 95 9s95-9 95-9c12-58 24-97 33-120 49-17 94-44 133-78 23 4 61 12 114 30 0 0 7 5 55-81 48-85 39-89 39-89zM512 736c-160 0-288-129-288-288s128-288 288-288c159 0 288 129 288 288s-129 288-288 288zM512 224c-124 0-224 100-224 224s100 224 224 224c123 0 224-100 224-224s-101-224-224-224zM512 544c-54 0-96-43-96-96s42-96 96-96c53 0 96 43 96 96s-43 96-96 96z" />
<glyph unicode="&#xe183;" glyph-name="paper-clip" d="M580 902l-471-468c-114-113-114-298 0-412 115-113 301-113 415 0l461 457c20 21 20 54 0 74-21 20-54 20-74 0l-461-457c-73-73-193-73-267 0-73 73-73 192 0 265l36 35 435 432c46 45 119 45 165 0 45-45 45-118 0-163l-367-364c-18-18-47-18-65 0-17 18-17 46 0 64l213 211c20 20 20 53 0 73-21 21-54 21-75 0l-212-210c-59-59-59-153 0-212 59-58 154-58 213 0l371 368c1 2 2 3 4 5 78 86 75 219-8 302-86 85-227 85-313 0z" />
<glyph unicode="&#xe184;" glyph-name="lightning" d="M800 640l-384-704 128 512-320-128 256 640h128l-192-448z" />
<glyph unicode="&#xe185;" glyph-name="list" d="M64 704c35 0 64 29 64 64s-29 64-64 64-64-29-64-64 29-64 64-64zM256 704h768v128h-768v-128zM64 384c35 0 64 29 64 64s-29 64-64 64-64-29-64-64 29-64 64-64zM896 512h-640v-128h640v128zM64 64c35 0 64 29 64 64s-29 64-64 64-64-29-64-64 29-64 64-64zM1024 64v128h-768v-128h768z" />
<glyph unicode="&#xe186;" glyph-name="hand-arrows" horiz-adv-x="1153" d="M516-64c-169 0-260 65-316 149l-187 278c-23 36-15 82 19 104 35 21 82 8 106-28l81-109v492c0 33 27 59 60 59 34 0 61-26 61-59v-295c0-11 9-20 20-20s20 9 20 20v374c0 33 27 59 60 59s60-26 60-59v-374c0-11 9-20 20-20s20 9 20 20v335c0 32 27 59 61 59 33 0 60-27 60-59v-375c0-10 9-19 20-19s20 9 20 19v256c0 33 27 59 60 59 34 0 61-26 61-59v-531c0-64-26-276-306-276zM1047 154c-9-12-28-36-48-52-2-2-4-5-7-7v1l-4-3 36-55-160 11 52 155 36-56c17 11 35 29 46 41 118 148 125 356 7 491-21 23-32 35-57 50l-36-55-52 155 161 11-37-55c30-19 46-35 70-62 137-157 130-398-7-570z" />
<glyph unicode="&#xe187;" glyph-name="link" d="M967 569l-141-141c-57-57-148-56-205 1l79 79c25-7 56 4 75 23l90 89c28 29 28 75 0 103l-76 77c-28 29-74 29-103 1l-89-90c-20-20-30-49-22-74l-81-80c-56 57-56 149 1 206l141 141c56 56 148 56 204-1l127-129c57-57 56-149 0-205zM362 296c-19 19-19 51 0 71l233 237c19 19 50 19 69-1 20-19 20-51 0-71l-233-237c-19-19-50-19-69 1zM245 366l-84-84c-28-29-29-76 0-105l78-78c29-29 75-29 104-1l84 84c19 20 30 52 23 76l81 81c58-58 57-152 0-209l-136-136c-58-58-151-58-208 0l-130 131c-57 58-57 152 1 209l136 136c57 58 150 58 208 0l-81-82c-26 8-55-2-76-22z" />
<glyph unicode="&#xe188;" glyph-name="tools" d="M983 105l-344 327c-3 3-6 6-10 9l70 70c81-29 176-13 241 49 47 45 71 108 65 171 0 8-5 14-12 16-8 3-16 1-21-4l-110-105-112 27-32 109 111 105c5 5 7 13 4 20-2 6-9 11-16 12-67 5-133-17-180-63-65-61-83-151-52-228l-10-9-90-82-164 157c-2 2-5 3-7 5l6 10c35-6 98 58 152 109l-157 150c-71-67-122-112-115-145-16-7-31-16-41-26l-22-21c-14-14-23-31-26-49l-7-7-8-10-1-1-8-10-12-19c-2-2-3-5-5-7l-4-7c-4-7-8-15-11-23l-1-1c-4-10-9-19-12-30l-1-4c-1-4-3-8-4-12l-3-15c-2-9-3-18-3-25l-1-6c-1-8-1-15 0-22v-11c0-3 0-7 1-10l2-12c0-2 0-5 1-7 1-4 1-9 3-14l8-27c2-8 10-13 19-12 5 0 9 2 12 5 3 2 5 6 5 10l5 27c0 2 1 5 2 8s1 5 2 7l3 10c0 2 1 3 1 4 1 2 2 3 2 4l3 7 6 12c1 2 2 4 4 5 2 5 5 10 8 13 0 0 0 1 1 1l7 9c1 2 3 3 4 5l4 4c4 5 9 9 13 13l3 2c3 3 7 6 12 9 1 1 3 2 5 4 2 1 4 2 6 4l11 6 8 4 9 4c3 2 5 3 8 4l5 2 4 1 5 2 3 1c2-4 5-8 8-11l163-155-347-318c-44-41-51-101-8-143 44-41 103-30 146 11l307 308 6-6 344-327c38-37 101-37 139 0 39 36 39 96 0 132z" />
<glyph unicode="&#xe189;" glyph-name="brush" d="M1004 639l-205-229c-6-7-14-11-23-11-8 0-16 4-22 11l-317 355c-12 13-12 34-2 48 41 55 123 147 211 147 33 0 64-13 92-38 51-45 82-81 107-110 33-38 86-89 147-114 10-4 18-14 20-26 3-12-1-24-8-33zM714 330c0-10-3-19-9-26l-109-121c-12-14-33-14-45 0l-123 137-18-21c-28-31-52-75-75-117-24-43-49-88-78-120-68-77-145-126-197-126-12 0-23 3-30 9l-4 3-5 5c-30 44 16 160 104 258 28 32 68 59 107 86 38 26 77 54 104 84l19 21-123 137c-12 14-12 37 0 51l109 121c12 14 33 14 45 0l319-356c6-7 9-16 9-25z" />
<glyph unicode="&#xe18b;" glyph-name="faq" horiz-adv-x="1088" d="M944 449l142-125c1 7 2 53 2 60v512c0 49-16 64-64 64h-960c-48 0-64-15-64-64v-576c0-49 16-64 64-64h320l-192-320 448 320h361c22 0 43 9 58 22l-158 138c-23-14-52-20-86-20-27 0-52 4-73 14-22 9-41 22-56 39s-26 36-34 59c-8 22-12 46-12 72 0 27 4 51 12 74s19 43 34 60 34 30 56 40c21 9 46 14 73 14 28 0 52-5 74-14 22-10 40-23 55-40s26-37 34-60 12-47 12-74c0-26-4-50-12-72s-19-42-34-59zM256 704h-128v-64h128v-64h-128v-192h-64v384h192v-64zM640 384h-90l-29 86h-147l-31-86h-87l149 384h88zM834 462c4 1 9 2 13 4l-34 30 37 39 40-37c7 9 12 20 16 34 4 13 6 29 6 48 0 16-2 31-5 45-4 15-9 28-17 40-8 11-18 20-30 27s-27 10-45 10c-17 0-32-3-45-10-12-7-22-16-30-27-7-12-13-25-16-39-4-15-6-30-6-46 0-15 2-29 6-43 3-14 9-27 16-38 8-12 18-21 30-27 13-7 28-11 45-11 8 0 15 1 19 1zM396 532h102l-49 141h-2z" />
<glyph unicode="&#xe190;" glyph-name="wrench" d="M1014 710c7-79-21-156-77-212-77-77-189-97-285-61-3-4-7-8-11-12l-407-437c-52-51-134-52-186-1s-52 134 0 185h1l435 410 12 10c-36 96-16 207 61 284 56 56 134 84 213 77 9-1 17-6 20-15 3-8 1-18-5-24l-131-130 46-144 144-46 131 130c6 7 16 9 24 6 9-3 15-11 15-20z" />
<glyph unicode="&#xe191;" glyph-name="hammer" horiz-adv-x="1082" d="M1074 655l-89 74c-10 9-25 7-33-2l-19-23-264 220c-7 5-15 7-23 4-6-2-20-6-37-7-29-3-73 1-114 32-10 7-24 5-32-4l-44-52c-4-5-6-11-5-17 0-6 3-12 8-16l151-126-567-678c-9-10-7-25 3-33l102-85c5-4 11-6 17-5 6 0 12 3 16 8l567 678 91-75-18-23c-9-10-7-25 3-33l89-74c9-8 25-6 32 3l169 202c8 9 7 24-3 32z" />
<glyph unicode="&#xe193;" glyph-name="wifi" horiz-adv-x="1264" d="M1239 534c-33-33-87-33-119 0l-44 43c-246 232-632 230-875-5-1 0-1 0-1-1l-56-55c-33-33-86-33-119 0s-33 86 0 119l55 56c1 1 3 2 5 3 301 290 774 298 1085 25 5-3 9-7 14-11l55-55c33-33 33-86 0-119zM284 449l21 22c182 182 475 189 665 15 2-1 3-2 4-3l7-6c2-2 4-4 7-6l35-37c18-17 27-40 27-65 0-24-10-47-27-64-36-36-94-36-130-1l-37 36c-115 115-304 115-420 0l-51-51c-36-36-94-36-130 0s-37 95-1 131zM632 288c106 0 192-86 192-192s-86-192-192-192-192 86-192 192 86 192 192 192z" />
<glyph unicode="&#xe194;" glyph-name="dashboard" horiz-adv-x="1408" d="M1395 24c9 46 13 93 13 140 0 404-316 732-704 732s-704-328-704-732c0-47 4-94 13-140 3-14 14-24 28-24h1326c14 0 25 10 28 24zM731 784c45 0 81-38 81-84s-36-84-81-84-81 38-81 84 36 84 81 84zM590 389c79 68 535 213 535 213s-220-441-298-509c-79-68-196-56-261 25-65 82-54 203 24 271zM352 552c45 0 81-38 81-84s-36-84-81-84-81 38-81 84 36 84 81 84zM637 166c31-38 86-43 123-11 37 31 42 88 11 126-30 38-86 43-123 11-37-31-42-88-11-126zM190 224c44 0 81-38 81-84s-37-84-81-84c-45 0-82 38-82 84s37 84 82 84zM1218 224c45 0 82-38 82-84s-37-84-82-84c-44 0-81 38-81 84s37 84 81 84z" />
<glyph unicode="&#xe195;" glyph-name="broken-link" d="M802 379l135 138c99 101 99 266 0 367-48 49-111 76-179 76s-131-27-179-76l-135-138 35-163 197 201c22 23 51 35 82 35s60-12 82-35c45-46 45-121 0-167l-197-202zM396 896l-128-64 128-128v192zM332 576l-256 128v-128h256zM221 517l-135-138c-48-49-74-114-74-183 0-70 26-135 74-184s111-76 179-76 132 27 179 76l135 138-35 163-197-201c-22-23-51-35-82-35s-60 12-82 35c-45 46-45 121 0 167l197 202zM716 320l192-128v128h-192zM652 64l128-64-128 256v-192z" />
<glyph unicode="&#xe196;" glyph-name="pin" d="M1012 660l-286 287c-16 15-43 15-58 0l-79-80c-8-7-12-18-12-28 0-11 4-22 12-29l1-2c20-32-19-126-108-215-25-25-50-46-76-64l-12-8-30 30c-18 17-42 27-68 27-25 0-49-10-67-27-18-18-27-42-27-68 0-25 9-49 27-67l93-93-310-320c-8-8-12-18-12-28 0-11 4-21 12-29s18-12 29-12c10 0 21 4 29 12l310 320 102-103c18-17 42-27 67-27s49 10 67 27c37 38 37 98 0 135l-30 30 8 12c18 26 40 52 64 76 90 90 167 113 195 113 8 0 15-1 21-5l1-1c16-16 42-16 58 0l79 80c16 15 16 41 0 57z" />
<glyph unicode="&#xe197;" glyph-name="light-bulb" d="M747 413c0 0-2-2-4-5l-12-20c-9-17-17-35-26-55-8-21-15-41-22-61-1-2-2-6-3-11s-2-8-2-10c-1-1-2-4-2-7 0-4-1-5-1-5v-47h-326v45l-1 4c0 3-1 7-3 13-1 7-3 12-4 18-7 20-14 40-22 61-9 18-18 38-29 57-4 8-8 15-12 20l-4 6v1c-55 62-82 134-82 218 0 89 31 166 94 230 63 63 138 95 226 95s163-32 226-95c63-64 94-141 94-230 0-85-28-159-85-222zM686 812c-48 49-106 73-174 73s-126-24-174-73c-49-49-73-108-73-177 0-64 21-120 63-168l13-16c3-7 8-15 12-23 12-22 23-44 32-65 10-22 19-45 26-69 5-15 7-28 9-38h184c2 10 4 23 9 38 6 24 15 47 25 69 10 23 20 43 29 62l15 24c5 7 9 13 12 16 43 48 65 104 65 170 0 69-24 128-73 177zM395 64l-9 64h251l-8-64h-234zM563-41c-14-15-31-23-51-23s-37 8-51 23c-11 12-17 26-22 41h146c-5-15-11-29-22-41z" />
<glyph unicode="&#xe198;" glyph-name="pen-ruler" d="M735 524l111 112s0 89-44 134c-45 45-134 44-134 44l-108-108-3-4-290 290-267-267 290-290-245-244s90-1 134-45c45-45 44-133 44-133l-44-45 289 289 289-289 267 267zM891 681l44 44c25 25 25 65 0 89l-89 89c-24 25-64 25-89 0l-44-44s89-1 133-45c45-45 45-133 45-133zM512 658l-89-89-22 22-89-89-45 45 45 44-45 45-44-45-45 45 89 89-44 44-89-89-45 45 178 178zM738 528l44 45v-1zM534 280l89 89-22 22 89 89 245-245-178-178-45 45 89 89-44 44-89-89-45 45 45 44-45 45-44-45zM0-32h179s0 89-45 134c-44 44-134 44-134 44v-178z" />
<glyph unicode="&#xe19b;" glyph-name="minus-circle" d="M512-64c283 0 512 229 512 512s-229 512-512 512-512-229-512-512 229-512 512-512zM832 384h-640v128h640v-128z" />
<glyph unicode="&#xe19e;" glyph-name="pizza" d="M576 128v-64c247 0 448 201 448 448s-201 448-448 448-448-201-448-448h64c0 212 172 384 384 384s384-172 384-384-172-384-384-384zM448 576c0-35-29-64-64-64h192v-320c177 0 320 143 320 320s-143 320-320 320-320-143-320-320h128c-35 0-64 29-64 64s29 64 64 64 64-29 64-64zM576 640c-35 0-64 29-64 64s29 64 64 64 64-29 64-64-29-64-64-64zM832 576c0-35-29-64-64-64s-64 29-64 64 29 64 64 64 64-29 64-64zM512-64v73c-242 0-439 197-439 439h-73c0-283 229-512 512-512zM512 448h-366c0-202 164-366 366-366v366zM704 320c-35 0-64 29-64 64s29 64 64 64 64-29 64-64-29-64-64-64zM366 375c40 0 73-33 73-73 0-41-33-73-73-73-41 0-73 32-73 73 0 40 32 73 73 73z" />
<glyph unicode="&#xe1ad;" glyph-name="medal" d="M376 579l124 277-60 104h-280zM864 960h-269l-200-448h265zM508 448c-141 0-256-115-256-256s115-256 256-256 256 115 256 256-115 256-256 256zM380 249v59c15-1 29 0 43 3 14 2 27 6 38 12s20 14 28 24c7 10 12 22 15 37h68v-384h-86v249h-106z" />
<glyph unicode="&#xe1ea;" glyph-name="chess" d="M256 128h512v32c0 18-14 32-32 32h-32s-62 76-8 191c181 443-166 499-166 499l-60 78-20-98-101-50-16-52-136-105-6-62 31-42 69-16s38 59 79 50c42-9 57-30 131-6 74 25-231-122-166-387h-47c-18 0-32-14-32-32v-32zM224-64h576c18 0 32 14 32 32v96h-640v-96c0-18 14-32 32-32z" />
<glyph unicode="&#xe200;" glyph-name="scissors1" d="M800 384c124 0 224-100 224-224s-100-224-224-224-224 100-224 224c0 37 10 72 26 103l-90 91-90-91c16-31 26-66 26-103 0-124-100-224-224-224s-224 100-224 224 100 224 224 224c28 0 54-6 78-15l98 98-224 226c-40 41-73 121-73 179v15c0 59 33 73 73 32l336-338 336 338c40 41 73 27 73-32v-15c0-58-33-138-73-179l-224-226 98-98c24 9 50 15 78 15zM512 512c-35 0-64-29-64-64s29-64 64-64 64 29 64 64-29 64-64 64zM224 256c-53 0-96-43-96-96s43-96 96-96 96 43 96 96-43 96-96 96zM800 64c53 0 96 43 96 96s-43 96-96 96-96-43-96-96 43-96 96-96z" />
<glyph unicode="&#xe202;" glyph-name="tool-square" d="M896 192v512h128v256h-256v-128h-512v128h-256v-256h128v-512h-128v-256h256v128h512v-128h256v256h-128zM832 192h-64v-64h-512v64h-64v512h64v64h512v-64h64v-512z" />
<glyph unicode="&#xe203;" glyph-name="tool-square2" d="M256 768h128v64h-128v128h-256v-256h128v-128h64v128h64v64zM896 704h128v256h-256v-128h-128v-64h128v-64h64v-128h64v128zM448 768h128v64h-128v-64zM192 512h-64v-128h64v128zM896 512h-64v-128h64v128zM256 64h128v64h-128v64h-64v128h-64v-128h-128v-256h256v128zM1024-64v256h-128v128h-64v-128h-64v-64h-128v-64h128v-128h256zM448 64h128v64h-128v-64z" />
<glyph unicode="&#xe204;" glyph-name="tool-square3" d="M64 896h128v64h-192v-192h64v128zM256 896h128v64h-128v-64zM448 896h128v64h-128v-64zM640 896h128v64h-128v-64zM960 768h64v192h-192v-64h128v-128zM0 576h64v128h-64v-128zM960 576h64v128h-64v-128zM64 512h-64v-128h64v128zM960 384h64v128h-64v-128zM64 320h-64v-128h64v128zM960 192h64v128h-64v-128zM0-64h192v64h-128v128h-64v-192zM1024-64v192h-64v-128h-128v-64h192zM256-64h128v64h-128v-64zM448-64h128v64h-128v-64zM640-64h128v64h-128v-64z" />
<glyph unicode="&#xe205;" glyph-name="tool-square4" d="M960 64v768h64v64h-64v64h-64v-64h-768v64h-64v-64h-64v-64h64v-768h-64v-64h64v-64h64v64h768v-64h64v64h64v64h-64zM896 64h-768v768h768v-768z" />
<glyph unicode="&#xe206;" glyph-name="tool-square5" d="M832 192v512h192v64s-79 15-128 64c-47 47-64 128-64 128h-64v-192h-512v192h-64s-17-81-64-128c-49-49-128-64-128-64v-64h192v-512h-192v-64s79-15 128-64c47-47 64-128 64-128h64v192h512v-192h64s17 81 64 128c49 49 128 64 128 64v64h-192zM768 192h-512v512h512v-512z" />
<glyph unicode="&#xe207;" glyph-name="tool-circle" d="M448 896h128v64h-128v-64zM233 804l110 64-32 55-110-64zM681 868l110-64 32 55-110 64zM92 617l64 110-55 32-64-110zM868 727l64-110 55 32-64 110zM0 512v-128h64v128h-64zM960 512v-128h64v128h-64zM37 247l64-110 55 32-64 110zM923 137l64 110-55 32-64-110zM201 37l110-64 32 55-110 64zM713-27l110 64-32 55-110-64zM448-64h128v64h-128v-64z" />
<glyph unicode="&#xe208;" glyph-name="tool-double-square" d="M64 320h512c35 0 64 29 64 64v512c0 35-29 64-64 64h-512c-35 0-64-29-64-64v-512c0-35 29-64 64-64zM576 384h-512v512h512v-512zM448-64h512c35 0 64 29 64 64v512c0 35-29 64-64 64h-256v-64h256v-512h-512v256h-64v-256c0-35 29-64 64-64z" />
<glyph unicode="&#xe209;" glyph-name="tool-double-square2" d="M576 320h-512c-35 0-64 29-64 64v512c0 35 29 64 64 64h512c35 0 64-29 64-64v-512c0-35-29-64-64-64zM832 766h64v68h-64v-64l-128 97 128 93v-63h128v-131h64l-98-126zM960-64h-512c-35 0-64 29-64 64v256h64v-256h512v512h-256v64h256c35 0 64-29 64-64v-512c0-35-29-64-64-64z" />
<glyph unicode="&#xe20a;" glyph-name="coffee2" d="M480 704c0 0 106 35 78 108-55 97-31 99-14 148 0 0-127-25-46-162 26-42-18-94-18-94zM64-64h896c18 0 32 14 32 32s-14 32-32 32h-224v128h64c71 0 128 57 128 128v128c0 71-57 128-128 128h-64v64c0 35-29 64-64 64h-384c-35 0-64-29-64-64v-128h192v-256h-192v-192h-160c-18 0-32-14-32-32s14-32 32-32zM224 192v256h-64v-256h64zM736 192v256h64c35 0 64-29 64-64v-128c0-35-29-64-64-64h-64z" />
<glyph unicode="&#xe20b;" glyph-name="warning-triangle" horiz-adv-x="1152" d="M1152 23c0 18-5 35-14 49l-498 824c-22 33-37 64-64 64-35 0-43-30-64-64l-494-819c-11-15-18-34-18-54 0-46 36-84 81-87h986c47 0 85 39 85 87zM479 704h194c17 0 31-15 31-33l-31-286c-5-34-9-65-62-65h-70c-46 0-60 34-62 65l-31 286c0 18 14 33 31 33zM576 0c-71 0-128 57-128 128s57 128 128 128 128-57 128-128-57-128-128-128z" />
<glyph unicode="&#xe20e;" glyph-name="restaurant" d="M352-64v960s1 64 0 64c-183-1-191-205-192-256v-256c0-29 33-64 64-64h64v-448c0 1 64 0 64 0zM736 576h64c35 0 64 29 64 64v256c0 35-29 64-64 64v-320h-64v320h-64v-320h-64v320c-35 0-64-29-64-64v-256c0-35 29-64 64-64h64v-640h64v640z" />
<glyph unicode="&#xe210;" glyph-name="tool-double-square3" d="M576 640h64v256c0 35-29 64-64 64h-512c-35 0-64-29-64-64v-512c0-35 29-64 64-64h256v64h-256v512h512v-256zM1024 764h-64v132h-128v64l-128-94 128-98v64h64v-68h-64l94-128zM448-64h512c35 0 64 29 64 64v512c0 35-29 64-64 64h-512c-35 0-64-29-64-64v-512c0-35 29-64 64-64z" />
<glyph unicode="&#xe211;" glyph-name="tool-crop" d="M896 192v595l128 128-45 45-128-128h-595v128h-128v-128h-128v-128h128v-640h640v-128h128v128h128v128h-128zM723 704l-467-467v467h467zM768 659v-467h-466z" />
<glyph unicode="&#xe212;" glyph-name="tool-square6" d="M0 768v192h192v-64h-128v-128h-64zM832 896v64h192v-192h-64v128h-128zM896 832v-768h-768v768h768zM192 0v-64h-192v192h64v-128h128zM832-64v64h128v128h64v-192h-192z" />
<glyph unicode="&#xe213;" glyph-name="tool-color-sample" horiz-adv-x="1012" d="M840 508l135 134c49 49 49 130 0 179l-90 90c-49 49-130 49-179 0l-134-135c-25 25-65 25-90 0l-44-44c-25-25-25-65 0-90l44-45-425-425c-29-29-34-72-18-107l-27-27c-12-12-12-33 0-45l45-45c12-12 33-12 45 0l27 27c35-16 78-11 107 18l425 425 45-44c25-25 65-25 90 0l44 44c25 25 25 65 0 90zM192 576v70c27 10 48 31 58 58h70v64h-70c-10 27-31 48-58 58v70h-64v-70c-27-10-48-31-58-58h-70v-64h70c10-27 31-48 58-58v-70h64zM160 768c18 0 32-14 32-32s-14-32-32-32-32 14-32 32 14 32 32 32zM796 463l-45-45-269 269 45 45zM527 553l90-90-421-420s0-1-2-2l-3-3-3-2c-25-18-60-17-82 5s-23 55-7 80c1 2 1 4 3 6z" />
<glyph unicode="&#xe214;" glyph-name="tool-color-sample2" horiz-adv-x="1009" d="M837 508l135 134c49 49 49 130 0 179l-90 90c-49 49-130 49-179 0l-134-135c-25 25-65 25-90 0l-44-44c-25-25-25-65 0-90l44-45-425-425c-29-29-34-72-18-107l-27-27c-12-12-12-33 0-45l45-45c12-12 33-12 45 0l27 27c35-16 78-11 107 18l425 425 45-44c25-25 65-25 90 0l44 44c25 25 25 65 0 90zM793 463l-45-45-269 269 45 45zM524 553l90-90-421-420s0-1-2-2l-3-3-3-2c-25-18-60-17-82 5s-23 55-7 80c1 2 1 4 3 6z" />
<glyph unicode="&#xe215;" glyph-name="tool-brush" d="M987-64c-20-4-51-5-86-2l-108 115 58-110c-23 4-48 9-72 16l-88 94 43-80c-71 25-130 63-141 116-10 49-7 97 5 138l-565 576c-32 31-32 81 0 112l22 23c32 31 83 31 114 0l512-604c8 4 15 7 24 9 87 18 178-66 204-188 25-123 165-197 78-215z" />
<glyph unicode="&#xe216;" glyph-name="tool-brush-arrow" horiz-adv-x="1028" d="M859 649c62-77 101-173 101-280h-64c0 87-30 166-79 230-91-109-178-201-178-201-26-25-93-94-127-93 26-11 34-58 10-104-60-117-373-280-522-135 0 0 210 70 198 234-7 90 104 105 186 133 2 29 62 96 85 118 0 0 87 82 192 172-46 19-96 30-149 30-33 0-64-6-94-14l31-122-280 60 201 250 32-127c35 10 72 17 110 17 73 0 141-19 202-50 131 107 272 208 307 174 33-32-60-165-162-292zM872 241h67c-25-83-73-155-136-210l-33 56c46 42 81 94 102 154zM512-15c54 0 104 12 151 32l32-55c-56-26-117-41-183-41-28 0-55 4-81 9l34 59c15-2 31-4 47-4z" />
<glyph unicode="&#xe217;" glyph-name="tool-pen" d="M786 128h-549c-52 121-109 256-109 256 189 189 256 576 256 576h64v-402c-38-22-64-63-64-110 0-71 57-128 128-128s128 57 128 128c0 47-26 88-64 110v402h64s65-385 256-576c0-1-57-135-110-256zM320-64l-55 128h494l-55-128h-384z" />
<glyph unicode="&#xe218;" glyph-name="arrow-mouse" d="M870 486l-717 473 52-857 245 216 208-361c9-15 28-20 44-11l55 32c15 8 20 28 12 43l-208 361h1z" />
<glyph unicode="&#xe219;" glyph-name="screwdriver" d="M607 501l45-45c25-25 25-66 0-91l-138-47 2-89-271-271c-25-25-66-25-91 0l-135 136c-25 25-25 65 0 90l271 272 87-4 49 140c25 25 65 25 90 0l46-46 335 336 62 81 64-64-81-62zM64 139l45-45 226 226-45 45z" />
<glyph unicode="&#xe21a;" glyph-name="rosted-chicken" horiz-adv-x="1280" d="M555 711c11-40-10-94-10-94s79 79 79 126-82 75-92 100c-24 35 13 117 13 117s-89-64-89-126 95-78 99-123zM422 657c0-34 54-43 56-68 6-23-6-54-6-54s44 45 44 71-45 42-52 57c-13 19 8 65 8 65s-50-36-50-71zM1199 262c44 0 80 34 80 76 0 41-36 75-80 75h-6c2 7 4 14 4 21 0 42-36 75-80 75s-80-33-80-75c0-24 12-44 29-58l-159-127c-18 10-38 22-60 28-261 74-287-107-287-107l-28 33c35 144 212 135 308 119-23 111-100 196-348 153-202-44-289-114-327-187-26 38-43 92-40 167-1-3-121-42-121-42s-48-230 184-398l18-13c54-43 144-65 286-65 58 0 107 4 148 11 32-8 72-12 121-11 169 2 235 47 235 162 0 22-4 43-12 61l155 128c15-16 37-26 60-26z" />
<glyph unicode="&#xe21b;" glyph-name="not-allowed" d="M512-64c283 0 512 229 512 512s-229 512-512 512-512-229-512-512 229-512 512-512zM512 832c212 0 384-172 384-384 0-83-27-159-72-222l-534 534c63 45 139 72 222 72zM512 64c-212 0-384 172-384 384 0 83 27 159 72 222l534-534c-63-45-139-72-222-72z" />
<glyph unicode="&#xe220;" glyph-name="pencil" horiz-adv-x="1011" d="M924 624l48 47c52 52 52 137 0 189l-48 48c-52 52-137 52-190 0l-47-48s85 10 169-73c82-82 68-163 68-163zM355 55l522 521s13 81-69 163c-84 84-169 74-169 74l-521-521s84 10 168-73c82-82 69-164 69-164zM932 537l-435-434 48-48 435 435zM202-13l105 21s14 81-68 163c-84 84-169 74-169 74l-21-107c28-10 61-28 95-62 31-31 49-62 58-89zM70-39l68 13c-10 18-23 36-42 55-20 21-41 35-60 46l-13-67-23-72z" />
<glyph unicode="&#xe221;" glyph-name="tool-dodge" d="M1002-55c-25-25-65-25-90 0l-412 412c-125-82-294-68-403 41-125 125-125 328 0 453s328 125 453 0c109-110 123-279 40-403l412-412c25-25 25-66 0-91z" />
<glyph unicode="&#xe222;" glyph-name="tool-blur" d="M384 960c0-436-256-428-256-640s172-384 384-384 384 172 384 384-299 550-512 640z" />
<glyph unicode="&#xe223;" glyph-name="tool-clone-stamp" d="M0 64v192c0 35 29 64 64 64h320s44 92 59 269c-72 28-123 97-123 179 0 106 86 192 192 192s192-86 192-192c0-82-51-151-123-179 15-174 59-269 59-269h320c35 0 64-29 64-64v-192h-1024zM128-64v64h768v-64h-768z" />
<glyph unicode="&#xe224;" glyph-name="tool-pattern-stamp" d="M1024 64v192c0 35-29 64-64 64h-320s-44 95-59 269c72 28 123 97 123 179 0 106-86 192-192 192s-192-86-192-192c0-82 51-151 123-179-15-177-59-269-59-269h-320c-35 0-64-29-64-64v-192h1024zM0 640h64v64h-64v-64zM128 704v-64h64v64h-64zM64 576h64v64h-64v-64zM64 512v64h-64v-64h64zM128 512h64v64h-64v-64zM896 0h-768v-64h768v64z" />
<glyph unicode="&#xe225;" glyph-name="tool-move" d="M0 960l98-704s98 141 233 231c136 89 309 127 309 127zM896 320v-64h-128v128h64l-100 128-92-128h64v-128h-128v64l-128-100 128-92v64h128v-128h-64l92-128 100 128h-64v128h128v-64l128 92z" />
<glyph unicode="&#xe226;" glyph-name="tool-magic-wand" d="M1001-38c25 25 25 66 0 91l-535 535 183 6-183 84 99 82-99 9-9 190-127-145-39 138-51-138-181 91 90-181-137-52 137-39-145-127 190-9 9-99 82 99 84-182 6 182 536-535c25-25 65-25 90 0z" />
<glyph unicode="&#xe227;" glyph-name="tool-paint-bucket" d="M20 218l281-262c25-24 66-23 90 3l506 493-350 263v-98c18-17 30-42 30-69 0-53-43-96-96-96s-96 43-96 96c0 27 12 52 30 69v197l-30 22-128-183v247h192v-384h64v384c0 35-29 64-64 64h-192c-35 0-64-29-64-64v-339l-176-252c-24-26-23-66 3-91zM897-60c71 0 128 57 128 128s-128 256-128 256-128-185-128-256 57-128 128-128z" />
<glyph unicode="&#xe228;" glyph-name="tool-content-move" horiz-adv-x="1280" d="M1024 480l256-192-256-192v128c-207 0-351 132-434 240-75 97-142 200-334 208h-64v128h64c281-10 370-157 452-264 76-97 140-184 316-184v128zM768 560l-86 109c71 68 171 125 342 131h64v-128h-64c-127-5-199-53-256-112zM256 480v-128c129 0 198 47 256 111l81-103c-83-73-195-136-337-136v-128l-256 192z" />
<glyph unicode="&#xe229;" glyph-name="tool-ruler" horiz-adv-x="1280" d="M0 640h1280v64h-1280v-64zM1280 192v384h-1280v-384h128v256h64v-256h128v128h64v-128h128v256h64v-256h128v128h64v-128h128v256h64v-256h128v128h64v-128h128z" />
<glyph unicode="&#xe22a;" glyph-name="crab" horiz-adv-x="1152" d="M956 437l179 13-5 44-187-4-135-129c-21 16-46 30-73 41l102 57-7 81c58 17 96 72 77 207-21 150-83 186-152 176l39-235-122 181c-17-33-23-82-12-157 17-127 62-171 115-177l4-44-122-66c-28 5-57 8-88 8-34 0-66-4-97-10l-129 93 10 43c53 0 103 37 137 160 20 73 20 123 7 157l-144-163 68 228c-66 19-132-9-172-154-36-131-5-191 50-216l-17-80 121-89c-24-10-45-22-64-36l-130 124-187 4-5-44 179-13 104-106-12-15-101 33-187-22 4-44 183 18 79-30c-3-10-5-21-5-32l-105 5-143-84 22-44 135 79 98-4c6-14 13-28 22-41l-77-29-83-150 31-35 2 3 2-3 83 154 73 28c56-49 147-81 248-81 105 0 197 33 253 84l82-31 83-154 2 3 2-3 31 35-83 150-88 33c8 12 15 24 19 37l112 4 135-79 22 44-143 84-118-5c0 9-2 19-4 28l91 34 183-18 4 44-187 22-112-36-8 11z" />
<glyph unicode="&#xe22b;" glyph-name="shield-delete" d="M512-64c466 112 448 768 448 768l-447 256-449-256s18-637 448-768zM612 448l128-128c28-28 28-73 0-100-27-28-72-28-100 0l-128 128-128-128c-28-28-73-28-100 0-28 27-28 72 0 100l128 128-128 128c-28 28-28 73 0 100 27 28 72 28 100 0l128-128 128 128c28 28 73 28 100 0 28-27 28-72 0-100z" />
<glyph unicode="&#xe22d;" glyph-name="printer" horiz-adv-x="1152" d="M960 64h128c45 0 64 16 64 64v512c0 48-19 64-64 64h-64v192c0 35-29 64-64 64h-768c-35 0-64-29-64-64v-192h-64c-45 0-64-16-64-64v-512c0-48 19-64 64-64h128v384h768v-384zM960 704h-768v192h768v-192zM1024 640c35 0 64-29 64-64s-29-64-64-64-64 29-64 64 29 64 64 64zM256 320h576v64h-576v-64zM256 192h320v64h-320v-64zM576 128h-320v-64h320v64zM960 0h-768v-64h768v64z" />
<glyph unicode="&#xe230;" glyph-name="flag-eu" horiz-adv-x="1280" d="M1280 0v896h-1280v-896h1280zM599 704l-76-25-24 74 76 25zM781 753l-24-74-76 25 24 74zM456 631l-47-65-63 46 48 65zM933 612l-63-45-47 64 63 46zM307 491l78-2-2-80-77 2zM974 411l-77-1-2 80 78 1zM826 267l46 66 64-45-47-66zM345 287l63 45 47-65-64-45zM495 145l25 73 76-25-25-74zM684 193l76 25 25-73-76-26z" />
<glyph unicode="&#xe232;" glyph-name="rectangle" horiz-adv-x="1280" d="M0 896h1280v-896h-1280v896zM64 832v-768h1152v768h-1152zM320 704h-128v-128h-64v192h192v-64zM1152 576h-64v128h-128v64h192v-192zM320 192v-64h-192v192h64v-128h128zM1152 320v-192h-192v64h128v128h64z" />
<glyph unicode="&#xe233;" glyph-name="two-windows" horiz-adv-x="1152" d="M896 320h-896v640h896v-640zM832 832h-768v-448h768v448zM256 256h64v-256h768v448h-128v128h192v-640h-896v320z" />
<glyph unicode="&#xe235;" glyph-name="text-letter" d="M992 640h-64s-69 192-196 192h-124v-768h192v-128h-576v128h192v768h-128c-123 0-192-192-192-192h-64v320h960v-320z" />
<glyph unicode="&#xe236;" glyph-name="text-letter-height" horiz-adv-x="1280" d="M320 128h-128v832h-64v-832h-128l160-192zM1280 640v320h-960v-320h64s69 192 192 192h128v-768h-192v-128h576v128h-192v768h124c127 0 196-192 196-192h64z" />
<glyph unicode="&#xe237;" glyph-name="text-letter-scale" horiz-adv-x="1280" d="M0 128h128v832h64v-832h128l-160-192zM768 896v-576h192v-64h-512v64h192v576h-64c-123 0-256-128-256-128v192h768v-192s-133 128-260 128h-60zM1088-64v128h-704v64h704v128l192-160z" />
<glyph unicode="&#xe238;" glyph-name="eye" horiz-adv-x="1152" d="M576 128c283 0 576 352 576 352s-293 288-576 288-576-288-576-288 293-352 576-352zM576 640c106 0 192-86 192-192s-86-192-192-192-192 86-192 192 86 192 192 192zM576 384c35 0 64 29 64 64s-29 64-64 64-64-29-64-64 29-64 64-64z" />
<glyph unicode="&#xe239;" glyph-name="document-check" d="M704 896h-640v-896h402c20-24 42-46 68-64h-470c-35 0-64 29-64 64v896c0 35 29 64 64 64h640c35 0 64-29 64-64v-323c-11 1-21 3-32 3s-21-2-32-3v323zM608 704h-448c-18 0-32 14-32 32s14 32 32 32h448c18 0 32-14 32-32s-14-32-32-32zM535 512h-375c-18 0-32 14-32 32s14 32 32 32h448c12 0 22-7 27-16-36-11-70-27-100-48zM736-64c-159 0-288 129-288 288s129 288 288 288 288-129 288-288-129-288-288-288zM399 320h-239c-18 0-32 14-32 32s14 32 32 32h264c-10-20-19-42-25-64zM694 146l-64 69c-12 13-31 13-42 0-12-13-12-33 0-46l84-92c12-13 31-13 43 0l233 184c12 13 12 34 0 46-11 13-30 13-42 0zM160 192h227c2-22 6-43 12-64h-239c-18 0-32 14-32 32s14 32 32 32z" />
<glyph unicode="&#xe23a;" glyph-name="coffee3" d="M480 512h90s86 46 40 176c-73 138-24 203-2 272 0 0-187-97-78-292 42-72-50-156-50-156zM732 155h122c41 0 74 35 74 78v73c0 43-33 78-74 78h-438s-89 84-47 156c109 195-81 292-81 292 22-69 74-134 1-272-47-130 40-176 40-176h-233c2-143 86-254 192-320v-64c0-30 34-64 64-64h192c30 0 64 34 64 64v64c46 27 93 46 124 91zM874 298v-57c0-17-13-31-30-31h-81c17 37 30 77 36 119h45c17 0 30-14 30-31z" />
<glyph unicode="&#xe23b;" glyph-name="warning-octagon" d="M1024 256v384l-320 320h-384l-320-320v-384l311-320h393zM415 832h194c17 0 31-16 31-35l-31-344c-5-36-9-69-62-69h-70c-46 0-60 37-62 69l-31 344c0 19 14 35 31 35zM512 64c-71 0-128 57-128 128s57 128 128 128 128-57 128-128-57-128-128-128z" />
<glyph unicode="&#xe23d;" glyph-name="scanner" horiz-adv-x="1408" d="M1408 0v128c0 29-41 48-44 49l-1300 783v-64l1152-704h-1152c-36 0-64-27-64-64v-128c0-37 28-64 64-64h1280c36 0 64 27 64 64zM896 320h-768l128-64h768z" />
<glyph unicode="&#xe23f;" glyph-name="magnifying-glass" d="M1005-42c25 25 25 66 0 91l-363 363c39 56 62 125 62 199 0 194-158 352-352 352s-352-158-352-352 158-352 352-352c74 0 143 23 199 62l363-363c25-25 66-25 91 0zM352 899c159 0 288-129 288-288s-129-288-288-288-288 129-288 288 129 288 288 288z" />
<glyph unicode="&#xe240;" glyph-name="document-plus" d="M704 896h-640v-896h402c20-24 43-46 68-64h-470c-35 0-64 29-64 64v896c0 35 29 64 64 64h640c35 0 64-29 64-64v-323c-11 1-21 3-32 3s-21-2-32-3v323zM608 704h-448c-18 0-32 14-32 32s14 32 32 32h448c18 0 32-14 32-32s-14-32-32-32zM534 512h-374c-18 0-32 14-32 32s14 32 32 32h448c12 0 22-7 27-16-36-11-70-27-101-48zM736-64c-159 0-288 129-288 288s129 288 288 288 288-129 288-288-129-288-288-288zM399 320h-239c-18 0-32 14-32 32s14 32 32 32h264c-10-20-19-42-25-64zM768 256v128h-64v-128h-128v-64h128v-128h64v128h128v64h-128zM160 192h227c2-22 6-43 12-64h-239c-18 0-32 14-32 32s14 32 32 32z" />
<glyph unicode="&#xe241;" glyph-name="document-delete" d="M704 896h-640v-896h402c20-24 43-46 68-64h-470c-35 0-64 29-64 64v896c0 35 29 64 64 64h640c35 0 64-29 64-64v-323c-11 1-21 3-32 3s-21-2-32-3v323zM608 704h-448c-18 0-32 14-32 32s14 32 32 32h448c18 0 32-14 32-32s-14-32-32-32zM534 512h-374c-18 0-32 14-32 32s14 32 32 32h448c12 0 22-7 27-16-36-11-70-27-101-48zM736-64c-159 0-288 129-288 288s129 288 288 288 288-129 288-288-129-288-288-288zM399 320h-239c-18 0-32 14-32 32s14 32 32 32h264c-10-20-19-42-25-64zM827 360l-91-91-91 91-45-45 91-91-91-91 45-45 91 91 91-91 45 45-91 91 91 91zM160 192h227c2-22 6-43 12-64h-239c-18 0-32 14-32 32s14 32 32 32z" />
<glyph unicode="&#xe242;" glyph-name="document-minus" d="M704 896h-640v-896h402c20-24 43-46 68-64h-470c-35 0-64 29-64 64v896c0 35 29 64 64 64h640c35 0 64-29 64-64v-323c-11 1-21 3-32 3s-21-2-32-3v323zM608 704h-448c-18 0-32 14-32 32s14 32 32 32h448c18 0 32-14 32-32s-14-32-32-32zM534 512h-374c-18 0-32 14-32 32s14 32 32 32h448c12 0 22-7 27-16-36-11-70-27-101-48zM736-64c-159 0-288 129-288 288s129 288 288 288 288-129 288-288-129-288-288-288zM399 320h-239c-18 0-32 14-32 32s14 32 32 32h264c-10-20-19-42-25-64zM576 256v-64h320v64h-320zM160 192h227c2-22 6-43 12-64h-239c-18 0-32 14-32 32s14 32 32 32z" />
<glyph unicode="&#xe243;" glyph-name="document-info" d="M704 896h-640v-896h402c20-24 43-46 68-64h-470c-35 0-64 29-64 64v896c0 35 29 64 64 64h640c35 0 64-29 64-64v-323c-11 1-21 3-32 3s-21-2-32-3v323zM608 704h-448c-18 0-32 14-32 32s14 32 32 32h448c18 0 32-14 32-32s-14-32-32-32zM534 512h-374c-18 0-32 14-32 32s14 32 32 32h448c12 0 22-7 27-16-36-11-70-27-101-48zM736-64c-159 0-288 129-288 288s129 288 288 288 288-129 288-288-129-288-288-288zM728 404c-20 0-37-17-37-38 0-22 17-39 37-39 21 0 37 17 37 39 0 21-16 38-37 38zM399 320h-239c-18 0-32 14-32 32s14 32 32 32h264c-10-20-19-42-25-64zM765 250c0 22-16 39-37 39-20 0-37-17-37-39 0 0-17-230 111-230-48 57-37 230-37 230zM160 192h227c2-22 6-43 12-64h-239c-18 0-32 14-32 32s14 32 32 32z" />
<glyph unicode="&#xe244;" glyph-name="document-warning" d="M704 896h-640v-896h402c20-24 43-46 68-64h-470c-35 0-64 29-64 64v896c0 35 29 64 64 64h640c35 0 64-29 64-64v-323c-11 1-21 3-32 3s-21-2-32-3v323zM608 704h-448c-18 0-32 14-32 32s14 32 32 32h448c18 0 32-14 32-32s-14-32-32-32zM534 512h-374c-18 0-32 14-32 32s14 32 32 32h448c12 0 22-7 27-16-36-11-70-27-101-48zM736-64c-159 0-288 129-288 288s129 288 288 288 288-129 288-288-129-288-288-288zM704 448v-320h64v320h-64zM399 320h-239c-18 0-32 14-32 32s14 32 32 32h264c-10-20-19-42-25-64zM160 192h227c2-22 6-43 12-64h-239c-18 0-32 14-32 32s14 32 32 32zM704 64v-64h64v64h-64z" />
<glyph unicode="&#xe245;" glyph-name="document-question" d="M704 896h-640v-896h402c20-24 43-46 68-64h-470c-35 0-64 29-64 64v896c0 35 29 64 64 64h640c35 0 64-29 64-64v-323c-11 1-21 3-32 3s-21-2-32-3v323zM608 704h-448c-18 0-32 14-32 32s14 32 32 32h448c18 0 32-14 32-32s-14-32-32-32zM534 512h-374c-18 0-32 14-32 32s14 32 32 32h448c12 0 22-7 27-16-36-11-70-27-101-48zM736-64c-159 0-288 129-288 288s129 288 288 288 288-129 288-288-129-288-288-288zM834 378c-3 11-9 21-17 30-8 10-18 17-31 24-13 6-29 9-48 9-15 0-29-3-41-9s-22-14-31-25c-8-10-15-23-19-37-5-14-8-31-8-48h60c0 9 1 17 2 25 2 7 4 14 8 19 3 6 7 10 13 14 5 3 11 5 19 5 10 0 19-4 25-11s9-18 9-32c0-9-1-16-4-22s-6-11-11-16c-4-5-9-9-15-14-5-5-10-11-15-17-5-7-9-15-13-24s-6-21-7-35v-22h55v19c1 10 4 18 8 24s9 12 14 17l18 15c6 5 11 11 16 18s10 15 13 25 5 23 5 38c0 10-2 20-5 30zM399 320h-239c-18 0-32 14-32 32s14 32 32 32h264c-10-20-19-42-25-64zM160 192h227c2-22 6-43 12-64h-239c-18 0-32 14-32 32s14 32 32 32zM768 64v64h-64v-64h64z" />
<glyph unicode="&#xe246;" glyph-name="document-arrow" d="M704 896h-640v-896h402c20-24 43-46 68-64h-470c-35 0-64 29-64 64v896c0 35 29 64 64 64h640c35 0 64-29 64-64v-323c-11 1-21 3-32 3s-21-2-32-3v323zM608 704h-448c-18 0-32 14-32 32s14 32 32 32h448c18 0 32-14 32-32s-14-32-32-32zM534 512h-374c-18 0-32 14-32 32s14 32 32 32h448c12 0 22-7 27-16-36-11-70-27-101-48zM736-64c-159 0-288 129-288 288s129 288 288 288 288-129 288-288-129-288-288-288zM706 402l-45-45 135-136-135-136 45-45 181 181zM399 320h-239c-18 0-32 14-32 32s14 32 32 32h264c-10-20-19-42-25-64zM160 192h227c2-22 6-43 12-64h-239c-18 0-32 14-32 32s14 32 32 32z" />
<glyph unicode="&#xe247;" glyph-name="document-stamp" d="M704 896v-323c11 1 21 3 32 3s21-2 32-3v323c0 35-29 64-64 64h-640c-35 0-64-29-64-64v-896c0-35 29-64 64-64h470c-25 18-48 40-68 64h-402v896h640zM160 704h448c18 0 32 14 32 32s-14 32-32 32h-448c-18 0-32-14-32-32s14-32 32-32zM160 512h374c31 21 65 37 101 48-5 9-15 16-27 16h-448c-18 0-32-14-32-32s14-32 32-32zM736-64c159 0 288 129 288 288s-129 288-288 288-288-129-288-288 129-288 288-288zM160 320h239c6 22 15 44 25 64h-264c-18 0-32-14-32-32s14-32 32-32zM387 192h-227c-18 0-32-14-32-32s14-32 32-32h239c-6 21-10 42-12 64z" />
<glyph unicode="&#xe248;" glyph-name="speech-bubble" d="M256 192l-256-256v960c0 35 29 64 64 64h896c35 0 64-29 64-64v-640c0-35-29-64-64-64h-704z" />
<glyph unicode="&#xe249;" glyph-name="speech-bubble-waiting" d="M256 192h704c35 0 64 29 64 64v640c0 35-29 64-64 64h-896c-35 0-64-29-64-64v-960zM192 704c71 0 128-57 128-128s-57-128-128-128-128 57-128 128 57 128 128 128zM512 704c71 0 128-57 128-128s-57-128-128-128-128 57-128 128 57 128 128 128zM832 704c71 0 128-57 128-128s-57-128-128-128-128 57-128 128 57 128 128 128z" />
<glyph unicode="&#xe24a;" glyph-name="restaurant-plate" horiz-adv-x="1408" d="M138 622l54 32-13 306h-25v-222h-26v198h-21v-214h-22v214h-21v-198h-26v222h-25l-13-306 50-31-33-610v-4c0-41 34-73 77-73 42 0 77 32 77 73v4zM1408 12l-20 398-4 550c-101-60-168-313-151-512 6 0 51-25 53-26l-21-410v-4c0-40 32-72 71-72 40 0 72 32 72 72v4zM704 0c247 0 448 201 448 448s-201 448-448 448-448-201-448-448 201-448 448-448zM704 768c177 0 320-143 320-320s-143-320-320-320-320 143-320 320 143 320 320 320z" />
<glyph unicode="&#xe24b;" glyph-name="bell2" d="M928 128l-128 192v192c-1 119-76 226-192 256v128c0 35-29 64-64 64h-64c-35 0-64-29-64-64v-128c-113-32-191-138-192-256v-192l-128-192h832zM672 64h-320v-24c0-57 72-104 160-104s160 47 160 104v24z" />
<glyph unicode="&#xe24d;" glyph-name="spinner" d="M528 704c71 0 128 57 128 128s-57 128-128 128-128-57-128-128 57-128 128-128zM192 576c71 0 128 57 128 128s-57 128-128 128-128-57-128-128 57-128 128-128zM864 640c53 0 96 43 96 96s-43 96-96 96-96-43-96-96 43-96 96-96zM256 384c0 71-57 128-128 128s-128-57-128-128 57-128 128-128 128 57 128 128zM928 320c53 0 96 43 96 96s-43 96-96 96-96-43-96-96 43-96 96-96zM896 160c0 53-43 96-96 96s-96-43-96-96 43-96 96-96 96 43 96 96zM288 0c53 0 96 43 96 96s-43 96-96 96-96-43-96-96 43-96 96-96zM544 128c-53 0-96-43-96-96s43-96 96-96 96 43 96 96-43 96-96 96z" />
<glyph unicode="&#xe24e;" glyph-name="kat" d="M960 578h-170c7 8 14 16 21 25h149v25h-134c4 8 8 16 11 25h123v25h-117c1 8 2 16 2 25-1 161-13 257-13 257l-128-128h-192l-127 128s-4-87 0-257c0-9 1-17 2-25h-117v-25h123c3-9 6-17 10-25h-133v-25h148c6-9 13-17 20-25h-168v-25h194c67-54 151-74 151-74s81 22 147 74h198v25zM327 255c0-175 57-191 57-191h-256c-39 0-64-26-64-64s25-64 64-64l507 3c2 0 4 1 5 1 178 8 246 108 246 315 0 104-8 186-54 257 0 0-146-100-217-100s-231 100-231 100c-50-72-57-148-57-257z" />
<glyph unicode="&#xe250;" glyph-name="speech-bubble-blogger" d="M256 192h704c35 0 64 29 64 64v640c0 35-29 64-64 64h-896c-35 0-64-29-64-64v-960zM896 620l-2-163c0-28-5-54-16-78-10-25-25-46-43-65-18-18-40-32-65-42-25-11-51-16-79-16h-232c-28 0-54 5-79 16-25 10-46 25-65 43-18 18-32 39-43 64s-16 51-16 79v236c0 27 5 53 16 78 11 24 25 46 43 65 19 18 40 33 65 43 25 11 51 16 79 16h141c14-2 28-6 43-12s30-14 45-24c14-10 28-21 40-33 12-13 22-27 29-41l6-12c1-3 3-7 4-11 1-5 3-10 4-17 2-7 3-17 5-29l5-34c1-9 5-16 11-21 4-4 10-6 19-7s18-2 27-2l26-1c8 0 13-2 16-4l8-7 6-13zM416 640h192c18 0 32 14 32 32v64c0 18-14 32-32 32h-192c-18 0-32-14-32-32v-64c0-18 14-32 32-32zM425 448h239c11 0 21 3 29 10 7 6 11 13 11 22s-4 17-11 23c-8 6-18 9-29 9h-239c-12 0-21-3-29-9s-12-14-12-23 4-16 12-22c8-7 17-10 29-10z" />
<glyph unicode="&#xe251;" glyph-name="speech-bubble-phone" d="M256 192h704c35 0 64 29 64 64v640c0 35-29 64-64 64h-896c-35 0-64-29-64-64v-960zM753 446l22-20c35-32 57-64 22-97l-19-17c-13-14-56-54-126-55-84-1-174 55-265 166-91 110-131 211-118 299 10 74 53 113 69 124l19 18c35 32 62 5 88-37l15-25c25-42 38-82 3-114l-21-20c-15-13-81-34 30-168 110-134 138-68 154-54l21 19c35 32 71 13 106-19z" />
<glyph unicode="&#xe252;" glyph-name="speech-bubble-rss" d="M256 192l-256-256v960c0 35 29 64 64 64h896c35 0 64-29 64-64v-640c0-35-29-64-64-64h-704zM811 471c-13 49-33 95-58 138s-56 82-91 117-74 66-117 91-89 45-138 58c-50 14-101 21-154 21-17 0-31-6-43-18s-18-26-18-43 6-31 18-43 26-18 43-18c42 0 82-5 121-16s76-27 110-47c33-19 64-43 92-71s52-59 71-92c20-34 36-71 47-110s16-79 16-121c0-17 6-31 18-43s26-18 43-18 31 6 43 18 18 26 18 43c0 53-7 104-21 154zM210 562c12-12 26-18 43-18 31 0 61-6 88-18 28-12 52-28 72-49 21-20 37-44 49-72 12-27 18-57 18-88 0-17 6-31 18-43s26-18 43-18 31 6 43 18 18 26 18 43c0 48-10 93-28 135-18 43-43 80-75 111-31 32-68 57-111 75-42 18-87 28-135 28-17 0-31-6-43-18s-18-26-18-43 6-31 18-43zM201 312c4-10 10-19 18-27s17-14 27-18c10-5 21-7 34-7 11 0 22 2 33 7 10 4 19 10 27 18s14 17 18 27c5 10 7 21 7 34 0 11-2 22-7 33-4 10-10 19-18 27s-17 14-27 18c-11 5-22 7-33 7-13 0-24-2-34-7-10-4-19-10-27-18s-14-17-18-27c-5-11-7-22-7-33 0-13 2-24 7-34z" />
<glyph unicode="&#xe253;" glyph-name="speech-bubble-twitter" d="M256 192h704c35 0 64 29 64 64v640c0 35-29 64-64 64h-896c-35 0-64-29-64-64v-960zM704 431v-116s-3-59-144-59c-140 0-176 82-176 128v256h-64v64s128 66 128 192h64v-192h128v-64h-128v-206c0-34 14-62 110-62 70 0 82 59 82 59z" />
<glyph unicode="&#xe254;" glyph-name="speech-bubble-facebook" d="M256 192l-256-256v960c0 35 29 64 64 64h896c35 0 64-29 64-64v-640c0-35-29-64-64-64h-704zM576 704v16c0 29 8 49 19 59 10 11 36 15 65 15 22 0 36-2 36-2v96c8-1-30 8-72 8-61 0-106-14-136-42s-42-70-42-126l2-24h-64v-64h62v-384h130v384h128v64h-128z" />
<glyph unicode="&#xe255;" glyph-name="speech-bubble-google-plus" d="M256 192l-256-256v960c0 35 29 64 64 64h896c35 0 64-29 64-64v-640c0-35-29-64-64-64h-704zM536 896h-189c-97 0-177-70-177-147 0-80 53-143 143-143h19c-6-11-10-23-10-36 0-22 12-35 27-50h-34c-111 0-187-35-187-143 0-35 42-89 94-111 53-21 118-26 174-14 93 20 139 70 137 146 0 58-12 86-73 132-18 13-56 40-56 58 0 22 6 32 38 57 33 25 56 59 56 101 0 45-19 87-54 107h50zM768 768v128h-64v-128h-128v-64h128v-128h64v128h128v64h-128zM350 637c-48 2-94 44-103 107-8 64 34 108 83 106 48-1 80-49 88-112 9-63-19-102-68-101zM462 409c2-5 2-11 2-17 0-51-35-89-136-89-71 0-123 41-123 91s58 76 128 76c26 0 104 0 129-61z" />
<glyph unicode="&#xe256;" glyph-name="speech-bubble-twitter2" d="M256 192l-256-256v960c0 35 29 64 64 64h896c35 0 64-29 64-64v-640c0-35-29-64-64-64h-704zM704 384h-47c-74 3-208 24-209 132v60h192c35 0 64 29 64 64s-29 64-64 64h-192v128c0 35-29 64-64 64s-64-29-64-64v-363c0-117 138-213 256-213h128c35 0 64 29 64 64s-29 64-64 64z" />
<glyph unicode="&#xe257;" glyph-name="speech-bubble-linkedin" d="M256 192l-256-256v960c0 35 29 64 64 64h896c35 0 64-29 64-64v-640c0-35-29-64-64-64h-704zM320 896c-35 0-64-29-64-64s29-64 64-64 64 29 64 64-29 64-64 64zM256 704v-448h128v448h-128zM832 256v288c0 88-64 160-144 160-45 0-86-43-112-79v79h-128v-448h128v256c0 35 29 64 64 64s64-29 64-64v-256h128z" />
<glyph unicode="&#xe258;" glyph-name="speech-bubble-warning" d="M256 192l-256-256v960c0 35 29 64 64 64h896c35 0 64-29 64-64v-640c0-35-29-64-64-64h-704zM448 896v-384h128v384h-128zM448 384v-128h128v128h-128z" />
<glyph unicode="&#xe259;" glyph-name="speech-bubble-info" d="M256 192h704c35 0 64 29 64 64v640c0 35-29 64-64 64h-896c-35 0-64-29-64-64v-960zM512 896c35 0 64-29 64-64s-29-64-64-64-64 29-64 64 29 64 64 64zM576 640c0 0-20-289 64-384-222 0-192 384-192 384 0 35 29 64 64 64s64-29 64-64z" />
<glyph unicode="&#xe25a;" glyph-name="martini" horiz-adv-x="1152" d="M896 704h-540l-128 256h-228v-64h188l96-192h-220l384-448v-192l-192-128h448l-192 128v192zM869 375c156 0 283 131 283 292 0 162-127 293-283 293-121 0-224-80-264-192h419l-295-354c41-25 89-39 140-39z" />
<glyph unicode="&#xe25b;" glyph-name="light-bulb2" d="M637 256l149 327c9 27 14 57 14 87 0 160-129 290-288 290s-288-130-288-290c0-32 5-63 15-92h-2l149-322h-2c-18 0-32-14-32-32s14-32 32-32h256c18 0 32 14 32 32s-14 32-32 32h-3zM704 128h-384c-18 0-32-14-32-32s14-32 32-32h32c6-71 75-128 160-128s154 57 160 128h32c18 0 32 14 32 32s-14 32-32 32z" />
<glyph unicode="&#xe25d;" glyph-name="crop" d="M192 832h128v128h-128v-128zM832 768h-832v-128h192v-512h512v-192h128v832zM704 256h-384v384h384v-384zM1024 128v128h-128v-128h128z" />
<glyph unicode="&#xe25f;" glyph-name="hospital-plus" d="M1024 832v128h-1024v-128h192v-128h-64c-35 0-64-29-64-64v-640c0-35 29-64 64-64h768c35 0 64 29 64 64v640c0 35-29 64-64 64h-64v128h192zM320 832h384v-128h-384v128zM256 384h192v192h128v-192h192v-128h-192v-192h-128v192h-192v128z" />
<glyph unicode="&#xe260;" glyph-name="speech-bubble-text" d="M256 192l-256-256v960c0 35 29 64 64 64h896c35 0 64-29 64-64v-640c0-35-29-64-64-64h-704zM768 832h-512c-35 0-64-29-64-64s29-64 64-64h512c35 0 64 29 64 64s-29 64-64 64zM768 640h-512c-35 0-64-29-64-64s29-64 64-64h512c35 0 64 29 64 64s-29 64-64 64zM768 448h-512c-35 0-64-29-64-64s29-64 64-64h512c35 0 64 29 64 64s-29 64-64 64z" />
<glyph unicode="&#xe261;" glyph-name="speech-bubble-cog" d="M256 192l-256-256v960c0 35 29 64 64 64h896c35 0 64-29 64-64v-640c0-35-29-64-64-64h-704zM832 544v67c0 9 0 13-85 44l-3 1-12 29 2 3c36 83 33 85 27 92l-48 47c-2 2-5 4-8 4s-11 0-82-33l-3-1-29 12-1 3c-34 84-37 84-45 84h-68c-9 0-12 0-43-84l-1-4-30-12-2 1c-48 21-76 32-84 32-3 0-6-2-8-4l-48-48c-6-6-9-8 29-90l1-3-12-29-2-1c-85-34-85-37-85-45v-68c0-9 0-13 85-44l3-1 12-29-2-3c-36-83-33-85-27-91l48-48c2-2 5-4 8-4s11 0 82 33l3 1 29-12 1-3c34-84 37-84 45-84h68c9 0 12 0 43 85l2 3 29 12 2-1c48-21 76-32 84-32 3 0 6 2 8 4l48 48c6 6 9 8-29 90l-1 3 11 29 3 1c85 34 85 37 85 46zM512 448c-71 0-128 57-128 128s57 128 128 128 128-57 128-128-57-128-128-128z" />
<glyph unicode="&#xe262;" glyph-name="speech-bubble-check" d="M256 192h704c35 0 64 29 64 64v640c0 35-29 64-64 64h-896c-35 0-64-29-64-64v-960zM799 804c30-29 33-78 6-110l-293-348c-14-17-34-26-55-26-16 0-32 6-45 17l-183 155c-32 26-37 75-12 109 26 33 72 38 103 12l129-109 247 293c27 32 73 35 103 7z" />
<glyph unicode="&#xe263;" glyph-name="speech-bubble-delete" d="M256 192l-256-256v960c0 35 29 64 64 64h896c35 0 64-29 64-64v-640c0-35-29-64-64-64h-704zM600 575l136 136c25 25 25 65 0 90s-65 25-90 0l-136-135-136 135c-25 25-66 25-91 0s-25-65 0-90l136-136-136-136c-25-25-25-65 0-90s66-25 91 0l136 136 136-136c25-25 65-25 90 0s25 65 0 90z" />
<glyph unicode="&#xe264;" glyph-name="speech-bubble-plus" d="M256 192l-256-256v960c0 35 29 64 64 64h896c35 0 64-29 64-64v-640c0-35-29-64-64-64h-704zM574 639v128c0 35-29 64-64 64-36 0-64-29-64-64v-128h-128c-36 0-64-29-64-64s28-64 64-64h128v-128c0-35 28-64 64-64 35 0 64 29 64 64v128h128c35 0 64 29 64 64s-29 64-64 64h-128z" />
<glyph unicode="&#xe265;" glyph-name="speech-bubble-minus" d="M256 192h704c35 0 64 29 64 64v640c0 35-29 64-64 64h-896c-35 0-64-29-64-64v-960zM318 639h384c35 0 64-29 64-64s-29-64-64-64h-384c-36 0-64 29-64 64s28 64 64 64z" />
<glyph unicode="&#xe266;" glyph-name="speech-bubble-search" d="M256 192l-256-256v960c0 35 29 64 64 64h896c35 0 64-29 64-64v-640c0-35-29-64-64-64h-704zM575 800c-123 71-279 29-350-93-70-123-29-279 94-350 103-60 230-38 310 43l229-133 64 111-229 133c30 109-15 230-118 289zM383 468c-61 35-82 114-47 175s114 82 175 47c61-36 82-114 47-175-36-61-114-82-175-47z" />
<glyph unicode="&#xe267;" glyph-name="speech-bubble-at" d="M256 192l-256-256v960c0 35 29 64 64 64h896c35 0 64-29 64-64v-640c0-35-29-64-64-64h-704zM807 742c-17 32-40 60-68 82-28 23-61 41-98 53-37 13-75 19-115 19-46 0-89-8-129-25-41-16-76-39-107-68-30-28-54-62-72-101-17-39-26-81-26-126 0-46 9-89 26-128 18-39 42-73 73-101 31-29 67-51 108-67s85-24 131-24c56 0 107 12 153 36 47 23 86 57 116 102h-74c-23-22-51-40-84-52s-68-18-105-18c-38 0-73 6-104 18-32 12-60 29-83 51-22 22-40 48-53 78-13 31-20 65-20 103 0 36 6 69 18 101 12 31 28 57 50 80s48 40 79 53 65 19 102 19c34 0 65-4 94-13s54-23 75-41c22-18 39-40 51-66s18-56 18-90c0-23-3-44-9-64-6-19-14-36-24-50-9-14-20-25-33-32-13-8-25-12-37-12-6 0-9 2-12 6-2 3-3 8-3 14 0 5 0 12 2 18l5 19 55 221h-72l-14-47c-10 23-25 38-45 47s-39 13-58 13c-29 0-55-6-79-18-23-13-43-30-60-50-17-21-30-44-39-70-9-27-13-53-13-80 0-20 3-39 10-57 8-17 18-33 30-46 13-14 28-24 44-32 17-8 35-12 54-12 18 0 36 4 53 12s31 21 41 38h2c1-14 8-26 19-35 12-9 27-14 45-14 14 0 33 5 56 14 23 10 46 24 69 44 22 20 42 46 58 78 16 31 24 69 24 113 0 39-9 75-25 107zM563 509c-10-12-22-22-35-30s-27-12-43-12c-21 0-37 7-50 21s-19 32-19 55c0 14 3 29 8 44s13 28 23 40c9 13 21 23 34 30 14 8 28 12 44 12 19 0 35-7 48-21 13-13 20-31 20-52 0-15-3-30-8-45-5-16-13-30-22-42z" />
<glyph unicode="&#xe268;" glyph-name="speech-bubble-pen" d="M256 192l-256-256v960c0 35 29 64 64 64h896c35 0 64-29 64-64v-640c0-35-29-64-64-64h-704zM690 848l91-90 45 45-90 91zM374 350l362 362-91 91-362-362zM328 305l-90 91-46-136z" />
<glyph unicode="&#xe269;" glyph-name="speech-bubble-time" d="M256 192l-256-256v960c0 35 29 64 64 64h896c35 0 64-29 64-64v-640c0-35-29-64-64-64h-704zM480 896c-159 0-288-129-288-288s129-288 288-288 288 129 288 288-129 288-288 288zM480 384c-124 0-224 100-224 224s100 224 224 224 224-100 224-224-100-224-224-224zM512 640v128h-64v-192h128v64h-64z" />
<glyph unicode="&#xe26b;" glyph-name="email-open" horiz-adv-x="1088" d="M1088 577l-537 380v2l-1-1h-1v-1l-549-380v-640h1088v640zM906 577l-202-192h-320l-192 192 358 238zM128 543l192-192-192-222v414zM960 109l-189 244 189 180v-424zM153 66l231 255h320l192-256z" />
<glyph unicode="&#xe26d;" glyph-name="pie-chart" d="M448 512v448c-247 0-448-201-448-448h448zM576-64c247 0 448 201 448 448s-201 448-448 448c-22 0-43-3-64-6v-378h-378c-3-21-6-42-6-64 0-247 201-448 448-448z" />
<glyph unicode="&#xe270;" glyph-name="speech-bubbles" d="M192 384h512c35 0 64 29 64 64v448c0 35-29 64-64 64h-640c-35 0-64-29-64-64v-704zM1024-64v704c0 35-29 64-64 64h-128v-320c0-35-29-64-64-64h-512v-128c0-35 29-64 64-64h512z" />
<glyph unicode="&#xe271;" glyph-name="twitter" d="M832 216v-186s-6-94-240-94-272 118-272 192v384h-128v128s192 118 192 320h128v-320h192v-128h-192l1-292c0-54 23-98 182-98 117 0 137 94 137 94z" />
<glyph unicode="&#xe272;" glyph-name="facebook" d="M576 640v64c0 47 0 52 17 69s58 24 105 24c36 0 57-2 57-2l1 152c12-2-49 13-116 13-97 0-170-22-218-67s-38-125-38-125v-128h-128v-129l128 1v-576h192v576h192v128h-192z" />
<glyph unicode="&#xe273;" glyph-name="blogger" horiz-adv-x="1088" d="M740-64h-395c-47 0-92 8-134 25-43 17-79 40-110 69s-56 63-74 103c-18 39-27 81-27 126v377c0 44 9 86 27 125 18 40 43 74 74 104 31 29 67 53 110 70 42 16 87 25 134 25h241c22-3 46-9 72-19s51-23 76-39c25-15 47-33 68-53s38-42 50-66l9-18c3-5 5-11 8-18l7-28c2-11 5-26 8-46 2-21 5-38 8-53 2-15 9-27 19-35 7-5 17-9 32-11l46-3 44-1c14-1 23-3 27-7l15-12 10-20 3-13-3-261c0-44-9-85-27-125-18-39-43-74-74-103s-67-51-110-68c-42-17-87-25-134-25zM574 704h-252c-19 0-34-6-47-19s-19-28-19-45c0-18 6-33 19-45 13-13 28-19 47-19h252c19 0 34 6 47 19s19 28 19 45-6 32-19 45-28 19-47 19zM256 257c0-18 6-33 19-46s28-19 47-19h446c18 0 33 6 46 19 12 13 18 28 18 46 0 17-6 32-18 45-13 12-28 18-46 18h-446c-19 0-34-6-47-18s-19-27-19-45z" />
<glyph unicode="&#xe274;" glyph-name="twitter2" d="M741 128h-68c-105 5-288 30-289 192v64h288c53 0 96 43 96 96s-43 96-96 96h-288v288c0 53-43 96-96 96s-96-43-96-96v-608c0-177 197-320 366-320h183c50 0 91 43 91 96s-41 96-91 96z" />
<glyph unicode="&#xe275;" glyph-name="linkedin-square" d="M172 960h680c95 0 172-77 172-172v-680c0-95-77-172-172-172h-680c-95 0-172 77-172 172v680c0 95 77 172 172 172zM320 640c35 0 64 29 64 64s-29 64-64 64-64-29-64-64 29-64 64-64zM384 576h-128v-448h128v448zM832 128v288c0 88-64 160-144 160-45 0-86-43-112-79v79h-128v-448h128v256c0 35 29 64 64 64s64-29 64-64v-256h128z" />
<glyph unicode="&#xe276;" glyph-name="google-plus" d="M54 705c0-87 29-150 85-187 46-30 99-35 127-35 7 0 12 1 16 1 0 0-9-58 34-116h-2c-74 0-314-16-314-217 0-205 221-215 265-215h14c29 0 102 4 170 37 89 44 134 120 134 226 0 103-69 164-118 209-31 27-57 51-57 73 0 24 19 41 43 63 40 36 77 87 77 184 0 85-11 141-78 178 7 3 32 6 44 8 36 5 89 10 89 40v6h-263c-3 0-266-10-266-255zM410 761c26-93-13-189-75-207-7-2-15-3-22-3-57 0-113 58-134 139-12 45-11 85 2 123 14 38 37 63 67 71 7 2 14 3 22 3 68 0 113-29 140-126zM832 768h-64v-192h-192l-3-63 195-1v-192h64v192l192 1v63h-192v192zM478 180c5-82-63-142-166-150-105-7-192 41-197 122-2 40 15 78 48 109 34 31 80 50 130 54h18c97 0 163-58 167-135z" />
<glyph unicode="&#xe277;" glyph-name="rss" d="M97 960c-26 0-49-10-68-29s-29-42-29-68c0-27 10-50 29-69s42-29 68-29c68 0 132-9 195-26 62-18 120-42 175-74 54-32 103-70 148-114 44-45 82-94 114-148 32-55 56-113 74-175 17-63 26-127 26-195 0-26 10-49 29-68s42-29 69-29c26 0 49 10 68 29s29 42 29 68c0 86-11 168-33 246-22 79-53 153-94 222-40 68-88 131-145 187-56 57-119 105-187 145-69 41-143 72-222 94-78 22-160 33-246 33zM97 591c-26 0-49-9-68-28s-29-42-29-69 10-50 29-69 42-29 68-29c51 0 98-9 142-28s82-45 115-78 59-71 78-115 28-91 28-142c0-26 10-49 29-68s42-29 69-29 50 10 69 29 28 42 28 68c0 77-14 150-44 217-29 68-69 127-120 177-50 51-109 91-177 120-67 30-140 44-217 44zM277 79c0 19-4 37-11 54-7 16-17 31-29 43-12 13-27 22-44 29-17 8-34 11-53 11s-37-3-54-11c-16-7-31-16-43-29-12-12-22-27-29-43-7-17-11-35-11-54s4-37 11-53c7-17 17-31 29-44 12-12 27-22 43-29 17-7 35-10 54-10s36 3 53 10 32 17 44 29c12 13 22 27 29 44 7 16 11 34 11 53z" />
<glyph unicode="&#xe278;" glyph-name="pencil2" d="M951 740l-146 147 73 73 146-146zM293 82l-146 146 585 586 146-147zM220 9l-146 146-74-219z" />
<glyph unicode="&#xe279;" glyph-name="ellipsis" d="M128 320c71 0 128 57 128 128s-57 128-128 128-128-57-128-128 57-128 128-128zM512 320c71 0 128 57 128 128s-57 128-128 128-128-57-128-128 57-128 128-128zM896 320c71 0 128 57 128 128s-57 128-128 128-128-57-128-128 57-128 128-128z" />
<glyph unicode="&#xe27a;" glyph-name="orange" d="M896 320c0 176-123 320-302 320 28 51 71 110 134 166-2 2-57 36-61 36-61-46-102-101-131-152-39 226-280 270-280 270s-39-168 76-269c36-30 69-49 98-60-235-35-302-137-302-311 0-193 72-384 384-384s384 191 384 384z" />
<glyph unicode="&#xe27d;" glyph-name="check-circle" d="M1024 448c0 92-25 178-67 252l67 67-64 65-56-55c-94 112-234 183-392 183-283 0-512-229-512-512s229-512 512-512 512 229 512 512zM932 739c13-20 24-40 24-40l-442-443-258 258 64 65 194-194 390 391s15-19 28-37z" />
<glyph unicode="&#xe280;" glyph-name="bars" d="M96 672h832c53 0 96 43 96 96s-43 96-96 96h-832c-53 0-96-43-96-96s43-96 96-96zM96 352h832c53 0 96 43 96 96s-43 96-96 96h-832c-53 0-96-43-96-96s43-96 96-96zM928 224h-832c-53 0-96-43-96-96s43-96 96-96h832c53 0 96 43 96 96s-43 96-96 96z" />
<glyph unicode="&#xe281;" glyph-name="speech-bubble-star" d="M256 192h704c35 0 64 29 64 64v640c0 35-29 64-64 64h-896c-35 0-64-29-64-64v-960zM768 636l-119-134 21-182-158 78-158-78 21 182-119 134 172 35 84 161 84-161z" />
<glyph unicode="&#xe282;" glyph-name="speech-bubble-arrow" d="M256 192l-256-256v960c0 35 29 64 64 64h896c35 0 64-29 64-64v-640c0-35-29-64-64-64h-704zM719 622l-227 226c-25 25-65 25-90 0s-25-66 0-91l181-181-181-181c-25-25-25-65 0-90s65-25 90 0l227 226c25 25 25 66 0 91z" />
<glyph unicode="&#xe283;" glyph-name="speech-bubble-arrow2" d="M256 192l-256-256v960c0 35 29 64 64 64h896c35 0 64-29 64-64v-640c0-35-29-64-64-64h-704zM576 832v-128c-249-34-348-213-384-384 89 119 206 192 384 192v-128l256 209z" />
</font>
</defs>
</svg>
